<?xml version="1.0" standalone="no"?>
<!DOCTYPE svg PUBLIC "-//W3C//DTD SVG 1.1//EN" "http://www.w3.org/Graphics/SVG/1.1/DTD/svg11.dtd" >
<svg xmlns="http://www.w3.org/2000/svg" xmlns:xlink="http://www.w3.org/1999/xlink" version="1.1">
<metadata>
Created by FontForge 20170910 at Fri Aug 27 23:34:37 2010
 By Jimmy Wärting
Copyright (c) 2009 by The Entente (AS &#38; EH). All rights reserved.
</metadata>
<defs>
<font id="Apercu-Italic" horiz-adv-x="577" >
  <font-face 
    font-family="Apercu"
    font-weight="400"
    font-style="italic"
    font-stretch="normal"
    units-per-em="1000"
    panose-1="2 0 5 6 0 0 0 9 0 4"
    ascent="800"
    descent="-200"
    x-height="504"
    cap-height="700"
    bbox="-113 -285 1930 1153"
    underline-thickness="50"
    underline-position="-100"
    unicode-range="U+0020-FB02"
  />
<missing-glyph horiz-adv-x="621" 
d="M524 0h-427v700h427v-700zM440 76v548h-259v-548h259z" />
    <glyph glyph-name="uniFB01" unicode="fi" horiz-adv-x="521" 
d="M113 428h-76l15 76h76l3 16c23 121 116 188 232 188c54 0 95 -11 123 -33l-32 -72c-28 19 -63 29 -106 29c-73 0 -117 -37 -132 -111l-3 -17h258l-98 -504h-85l83 428h-173l-83 -428h-85z" />
    <glyph glyph-name="uniFB02" unicode="fl" horiz-adv-x="590" 
d="M113 428h-77l15 76h77l5 26c23 119 96 178 220 178h202l-137 -708h-85l123 632h-118c-67 0 -107 -34 -120 -101l-5 -27h116l-15 -76h-116l-83 -428h-85z" />
    <glyph glyph-name=".notdef" horiz-adv-x="621" 
d="M524 0h-427v700h427v-700zM440 76v548h-259v-548h259z" />
    <glyph glyph-name="NULL" horiz-adv-x="0" 
 />
    <glyph glyph-name="CR.001" horiz-adv-x="333" 
 />
    <glyph glyph-name="space" unicode=" " horiz-adv-x="232" 
 />
    <glyph glyph-name="exclam" unicode="!" horiz-adv-x="347" 
d="M122 200l73 500h114l-121 -500h-66zM60 65c0 40 30 71 70 71s70 -31 70 -71c0 -39 -30 -68 -70 -68s-70 29 -70 68z" />
    <glyph glyph-name="quotedbl" unicode="&#x22;" horiz-adv-x="443" 
d="M192 476h-62l20 232h112zM345 476h-62l20 232h112z" />
    <glyph glyph-name="numbersign" unicode="#" horiz-adv-x="691" 
d="M225 424h-120l8 68h134l68 208h76l-68 -208h137l68 208h75l-68 -208h117l-8 -68h-131l-49 -148h121l-8 -68h-135l-67 -208h-75l67 208h-137l-66 -208h-77l67 208h-116l8 68h130zM438 424h-137l-49 -148h137z" />
    <glyph glyph-name="dollar" unicode="$" horiz-adv-x="523" 
d="M487 584l-76 -42c-20 55 -52 83 -96 83c-61 0 -97 -38 -97 -98c0 -57 32 -84 111 -125c47 -25 80 -49 101 -73s31 -59 31 -106c0 -71 -22 -127 -65 -166c-41 -39 -92 -60 -152 -64l-16 -83h-80l17 88c-41 11 -75 33 -102 68s-41 75 -41 118l80 43c7 -89 49 -151 128 -151
c80 0 140 47 140 131c0 64 -31 91 -107 128c-91 45 -137 104 -137 179c0 112 71 181 176 192l17 84h80l-18 -90c55 -19 93 -64 106 -116z" />
    <glyph glyph-name="percent" unicode="%" horiz-adv-x="878" 
d="M77 526c0 55 19 99 58 134c35 32 79 48 131 48c75 0 134 -55 134 -138c0 -55 -19 -99 -58 -134c-35 -32 -79 -48 -131 -48c-75 0 -134 55 -134 138zM254 638c-28 0 -51 -9 -70 -26c-22 -20 -33 -45 -33 -76c0 -51 29 -78 72 -78c28 0 51 9 70 26c22 20 33 45 33 76
c0 51 -29 78 -72 78zM447 130c0 55 19 99 58 134c35 32 79 48 131 48c75 0 134 -55 134 -138c0 -55 -19 -99 -58 -134c-35 -32 -79 -48 -131 -48c-75 0 -134 55 -134 138zM624 242c-28 0 -51 -9 -70 -26c-22 -20 -33 -45 -33 -76c0 -51 29 -78 72 -78c28 0 51 9 70 26
c22 20 33 45 33 76c0 51 -29 78 -72 78zM64 15l676 718l46 -43l-677 -719z" />
    <glyph glyph-name="ampersand" unicode="&#x26;" horiz-adv-x="621" 
d="M210 -8c-51 0 -94 16 -128 49s-51 77 -51 130c0 107 62 189 185 247c-26 41 -39 81 -39 119c0 107 69 171 180 171c88 0 139 -56 139 -132c0 -81 -66 -134 -174 -186l107 -182c20 29 44 70 72 122l47 -70c-28 -51 -54 -92 -77 -123l81 -137h-94l-43 74
c-59 -55 -128 -82 -205 -82zM225 68c54 0 104 24 150 73l-124 214c-91 -47 -136 -105 -136 -173c0 -76 45 -114 110 -114zM350 636c-51 0 -92 -34 -92 -95c0 -30 9 -60 27 -91c86 39 129 79 129 120c0 44 -21 66 -64 66z" />
    <glyph glyph-name="quotesingle" unicode="'" horiz-adv-x="290" 
d="M192 476h-62l20 232h112z" />
    <glyph glyph-name="parenleft" unicode="(" horiz-adv-x="285" 
d="M252 750h89c-135 -165 -202 -351 -202 -556c0 -91 16 -173 47 -244h-89c-31 71 -47 152 -47 243c0 217 67 403 202 557z" />
    <glyph glyph-name="parenright" unicode=")" horiz-adv-x="285" 
d="M24 -50h-89c134 165 201 350 201 556c0 91 -16 173 -47 244h89c31 -71 47 -152 47 -243c0 -218 -67 -404 -201 -557z" />
    <glyph glyph-name="asterisk" unicode="*" horiz-adv-x="489" 
d="M268 708h68l-27 -138l139 43l13 -64l-143 -44l59 -111l-63 -39l-59 111l-99 -111l-51 39l101 111l-121 43l33 65l123 -43z" />
    <glyph glyph-name="plus" unicode="+" 
d="M245 356l35 183h75l-35 -183h182l-15 -74h-182l-35 -183h-75l35 183h-182l15 74h182z" />
    <glyph glyph-name="comma" unicode="," horiz-adv-x="329" 
d="M59 -107h-63l102 217h117z" />
    <glyph glyph-name="hyphen" unicode="-" horiz-adv-x="479" 
d="M394 280h-339l15 74h339z" />
    <glyph glyph-name="period" unicode="." horiz-adv-x="275" 
d="M25 59c0 35 27 63 63 63c35 0 63 -28 63 -63c0 -36 -28 -63 -63 -63c-36 0 -63 27 -63 63z" />
    <glyph glyph-name="slash" unicode="/" horiz-adv-x="495" 
d="M-95 -50l589 800h89l-589 -800h-89z" />
    <glyph glyph-name="zero" unicode="0" horiz-adv-x="582" 
d="M356 708c121 0 191 -88 191 -251c0 -149 -35 -269 -105 -358c-56 -71 -128 -107 -216 -107c-120 0 -191 88 -191 251c0 149 35 269 105 358c56 71 128 107 216 107zM344 628c-77 0 -140 -58 -172 -138s-48 -163 -48 -236c0 -127 38 -182 114 -182c165 -1 222 240 220 374
c0 127 -38 182 -114 182z" />
    <glyph glyph-name="one" unicode="1" horiz-adv-x="375" 
d="M90 592l199 108h32l-137 -700h-83l112 574l-141 -74z" />
    <glyph glyph-name="two" unicode="2" horiz-adv-x="542" 
d="M408 0h-415l7 39l322 342c19 20 33 36 43 47c20 24 43 66 43 103c0 65 -30 97 -90 97s-109 -48 -130 -120l-85 16c29 109 106 184 222 184c104 0 172 -66 172 -155c0 -79 -27 -128 -91 -196l-260 -277h277z" />
    <glyph glyph-name="three" unicode="3" horiz-adv-x="542" 
d="M10 184v8l84 11v-6c0 -73 47 -125 124 -125c97 0 145 58 145 173c0 80 -43 123 -115 123c-23 0 -45 -4 -65 -13l-26 47l189 218h-243l15 80h381l-5 -27l-222 -241c7 2 15 3 26 3c97 0 154 -68 154 -188c0 -76 -22 -138 -65 -185s-103 -70 -179 -70c-59 0 -106 19 -143 57
s-55 83 -55 135z" />
    <glyph glyph-name="four" unicode="4" horiz-adv-x="556" 
d="M363 0h-89l29 149h-293l7 35l386 516h97l-92 -471h83l-16 -80h-83zM381 554l-241 -325h179z" />
    <glyph glyph-name="five" unicode="5" horiz-adv-x="542" 
d="M21 173v11l82 15v-8c0 -71 39 -119 108 -119c48 0 87 17 117 51c31 35 46 80 46 135c0 84 -36 126 -107 126c-51 0 -112 -29 -156 -78l-53 12l105 382h343l-15 -80h-267l-60 -203c35 31 77 47 124 47c108 0 175 -64 175 -193c0 -84 -24 -152 -71 -203s-111 -76 -192 -76
c-51 0 -93 17 -128 50c-34 34 -51 78 -51 131z" />
    <glyph glyph-name="six" unicode="6" horiz-adv-x="554" 
d="M300 448c105 0 175 -65 175 -188c0 -77 -24 -141 -73 -192s-111 -76 -188 -76c-113 0 -180 74 -180 186c0 63 22 124 66 182l266 348h102l-204 -267c11 5 23 7 36 7zM278 369c-46 0 -83 -18 -112 -53s-43 -77 -43 -125c0 -79 34 -119 103 -119c46 0 84 17 114 51
c31 35 46 76 46 125c0 80 -41 121 -108 121z" />
    <glyph glyph-name="seven" unicode="7" horiz-adv-x="497" 
d="M519 663l-398 -663h-96l376 620h-320l16 80h430z" />
    <glyph glyph-name="eight" unicode="8" horiz-adv-x="550" 
d="M344 708c103 0 163 -64 163 -161c0 -80 -47 -141 -118 -172c44 -23 78 -73 78 -144c0 -72 -21 -129 -63 -171c-45 -45 -110 -68 -194 -68c-53 0 -97 17 -132 50s-53 76 -53 129c0 92 50 166 142 206c-37 27 -55 68 -55 121c0 64 24 116 72 157c43 35 96 53 160 53z
M271 330c-43 0 -80 -14 -111 -42c-31 -27 -46 -62 -46 -103c0 -69 42 -113 110 -113c89 0 154 59 154 148c0 68 -38 110 -107 110zM329 632c-37 0 -68 -12 -94 -37c-25 -25 -38 -55 -38 -92c0 -57 34 -93 89 -93c36 0 68 12 95 35s41 53 41 90c0 61 -32 97 -93 97z" />
    <glyph glyph-name="nine" unicode="9" horiz-adv-x="554" 
d="M256 252c-105 0 -175 65 -175 188c0 77 24 141 73 192s111 76 188 76c113 0 180 -74 180 -186c0 -63 -22 -124 -66 -182l-266 -348h-102l204 267c-11 -5 -23 -7 -36 -7zM278 331c46 0 83 18 112 53s43 77 43 125c0 79 -34 119 -103 119c-46 0 -84 -17 -115 -52
c-30 -34 -45 -75 -45 -124c0 -80 41 -121 108 -121z" />
    <glyph glyph-name="colon" unicode=":" horiz-adv-x="297" 
d="M40 59c0 35 27 63 63 63c35 0 63 -28 63 -63c0 -36 -28 -63 -63 -63c-36 0 -63 27 -63 63zM106 403c0 35 27 63 63 63c35 0 63 -28 63 -63c0 -36 -28 -63 -63 -63c-36 0 -63 27 -63 63z" />
    <glyph glyph-name="semicolon" unicode=";" horiz-adv-x="297" 
d="M29 -107h-63l102 217h117zM106 403c0 35 27 63 63 63c35 0 63 -28 63 -63c0 -36 -28 -63 -63 -63c-36 0 -63 27 -63 63z" />
    <glyph glyph-name="less" unicode="&#x3c;" horiz-adv-x="457" 
d="M387 80l-349 186v88l349 186v-87l-267 -143l267 -143v-87z" />
    <glyph glyph-name="equal" unicode="=" horiz-adv-x="581" 
d="M481 356h-399v74h399v-74zM481 190h-399v74h399v-74z" />
    <glyph glyph-name="greater" unicode="&#x3e;" horiz-adv-x="457" 
d="M70 540l349 -186v-88l-349 -186v87l267 143l-267 143v87z" />
    <glyph glyph-name="question" unicode="?" horiz-adv-x="445" 
d="M276 336l65 -29c-41 -80 -78 -106 -145 -106c-72 0 -120 47 -120 114c0 69 39 106 112 138l98 43c41 19 61 44 61 77c0 41 -31 65 -74 65c-51 0 -89 -32 -116 -97l-77 21c31 88 104 146 203 146c91 0 147 -50 147 -130c0 -67 -34 -104 -98 -135l-119 -57
c-40 -20 -61 -37 -61 -70c0 -28 20 -45 45 -45c35 0 54 21 79 65zM91 63c0 39 29 68 66 68c39 0 68 -29 68 -68c0 -37 -29 -66 -68 -66c-37 0 -66 29 -66 66z" />
    <glyph glyph-name="at" unicode="@" horiz-adv-x="906" 
d="M588 459l17 50h65l-54 -252c-4 -20 -6 -31 -6 -33c0 -29 14 -44 42 -44c81 2 114 105 112 209c0 167 -92 257 -264 257c-105 0 -191 -35 -256 -104s-98 -160 -98 -274c0 -90 27 -161 81 -213c54 -51 123 -77 207 -77c87 0 175 22 262 65l21 -70
c-57 -25 -107 -43 -148 -52c-41 -10 -88 -15 -143 -15c-108 0 -196 33 -264 98s-102 151 -102 258c0 139 41 250 124 332c83 83 192 124 329 124c99 0 179 -28 241 -85c62 -56 93 -134 93 -235c0 -53 -6 -100 -18 -142c-24 -83 -89 -148 -182 -148c-52 0 -93 29 -106 68
c-35 -45 -84 -68 -146 -68c-99 0 -156 69 -156 169c0 71 21 128 62 172c41 45 98 67 171 67c53 0 97 -22 116 -57zM465 444c-42 0 -76 -16 -103 -47s-40 -69 -40 -114c0 -61 31 -103 90 -103c41 0 74 16 101 48c27 33 40 70 40 112c0 69 -29 104 -88 104z" />
    <glyph glyph-name="A" unicode="A" horiz-adv-x="574" 
d="M-57 0l372 700h85l106 -700h-89l-25 187h-261l-99 -187h-89zM380 271l-45 315l-160 -315h205z" />
    <glyph glyph-name="B" unicode="B" horiz-adv-x="609" 
d="M35 0l137 700h222c112 0 173 -56 173 -156c0 -77 -44 -135 -111 -163c51 -23 89 -71 89 -142c0 -77 -24 -136 -73 -177s-112 -62 -190 -62h-247zM334 331h-145l-48 -247h145c100 0 167 47 167 138c0 71 -43 109 -119 109zM382 616h-138l-39 -201h140c73 0 133 38 133 113
c0 59 -32 88 -96 88z" />
    <glyph glyph-name="C" unicode="C" horiz-adv-x="662" 
d="M517 229l78 -25c-65 -141 -165 -212 -302 -212c-76 0 -137 24 -184 73s-70 118 -70 207c0 75 15 146 45 211s75 119 135 161c60 43 129 64 208 64c66 0 119 -21 160 -62s63 -91 67 -150l-85 -23c-16 101 -69 151 -158 151c-59 0 -110 -17 -154 -52
c-87 -68 -126 -174 -126 -290c0 -133 60 -206 173 -206c92 0 156 45 213 153z" />
    <glyph glyph-name="D" unicode="D" horiz-adv-x="669" 
d="M35 0l137 700h180c168 0 276 -98 276 -279c0 -119 -37 -219 -112 -300c-74 -81 -170 -121 -287 -121h-194zM333 616h-89l-103 -532h89c92 0 165 31 220 93c55 63 83 141 83 235c0 136 -71 204 -200 204z" />
    <glyph glyph-name="E" unicode="E" horiz-adv-x="563" 
d="M35 0l137 700h396l-17 -84h-307l-39 -201h250l-16 -84h-250l-48 -247h317l-17 -84h-406z" />
    <glyph glyph-name="F" unicode="F" horiz-adv-x="551" 
d="M35 0l137 700h399l-17 -84h-310l-40 -209h250l-17 -84h-250l-63 -323h-89z" />
    <glyph glyph-name="G" unicode="G" horiz-adv-x="698" 
d="M527 269h-144l16 84h236l-69 -353h-76l9 96c-56 -73 -118 -104 -213 -104c-69 0 -127 24 -175 73s-72 120 -72 212c0 76 15 146 44 211c30 65 75 117 135 158s129 62 208 62c67 0 121 -20 162 -59c42 -39 65 -90 68 -152l-88 -23c-13 100 -66 150 -158 150
c-82 0 -149 -33 -201 -99s-78 -144 -78 -235c0 -139 61 -214 172 -214c109 0 191 74 224 193z" />
    <glyph glyph-name="H" unicode="H" horiz-adv-x="695" 
d="M515 414l56 286h89l-137 -700h-89l65 330h-310l-65 -330h-89l137 700h89l-56 -286h310z" />
    <glyph glyph-name="I" unicode="I" horiz-adv-x="296" 
d="M35 0l137 700h89l-137 -700h-89z" />
    <glyph glyph-name="J" unicode="J" horiz-adv-x="541" 
d="M329 219l93 481h89l-100 -515c-24 -127 -109 -193 -228 -193c-53 0 -96 18 -129 55s-49 79 -49 128l89 19c0 -79 33 -118 99 -118c72 0 117 48 136 143z" />
    <glyph glyph-name="K" unicode="K" horiz-adv-x="597" 
d="M283 382l224 -382h-108l-206 353l-69 -353h-89l137 700h89l-55 -281l298 281h120z" />
    <glyph glyph-name="L" unicode="L" horiz-adv-x="506" 
d="M35 0l137 700h89l-120 -616h308l-17 -84h-397z" />
    <glyph glyph-name="M" unicode="M" horiz-adv-x="790" 
d="M35 0l137 700h104l92 -493l279 493h108l-137 -700h-89l100 510l-254 -446h-66l-85 446l-100 -510h-89z" />
    <glyph glyph-name="N" unicode="N" horiz-adv-x="706" 
d="M475 153l107 547h89l-137 -700h-99l-205 545l-106 -545h-89l137 700h99z" />
    <glyph glyph-name="O" unicode="O" horiz-adv-x="713" 
d="M425 708c73 0 133 -25 178 -76c46 -50 69 -119 69 -207c0 -146 -50 -262 -151 -348c-66 -57 -144 -85 -235 -85c-73 0 -133 25 -179 75c-45 51 -68 120 -68 208c0 146 50 262 151 348c66 57 144 85 235 85zM410 624c-69 0 -130 -27 -181 -82c-65 -69 -98 -156 -98 -259
c0 -133 59 -207 170 -207c69 0 130 27 181 82c65 69 98 156 98 259c0 133 -59 207 -170 207z" />
    <glyph glyph-name="P" unicode="P" horiz-adv-x="584" 
d="M325 300h-142l-59 -300h-89l137 700h224c113 0 187 -65 187 -166c0 -152 -99 -234 -258 -234zM199 384h153c83 0 138 49 138 134c0 61 -33 98 -100 98h-146z" />
    <glyph glyph-name="Q" unicode="Q" horiz-adv-x="713" 
d="M425 708c73 0 133 -25 178 -76c46 -50 69 -119 69 -207c0 -124 -37 -227 -112 -310l52 -64l-71 -59l-50 61c-58 -41 -126 -61 -205 -61c-73 0 -133 25 -179 75c-45 51 -68 120 -68 208c0 146 50 262 151 348c66 57 144 85 235 85zM410 624c-69 0 -130 -27 -181 -82
c-65 -69 -98 -156 -98 -259c0 -133 59 -207 170 -207c51 0 96 14 137 43l-65 81l72 59l59 -74c51 67 76 144 76 232c0 133 -59 207 -170 207z" />
    <glyph glyph-name="R" unicode="R" horiz-adv-x="596" 
d="M530 0h-99l-139 330h-103l-65 -330h-89l137 700h222c111 0 178 -60 178 -157c0 -116 -70 -192 -185 -207zM380 616h-136l-39 -202h139c85 0 136 38 136 113c0 59 -33 89 -100 89z" />
    <glyph glyph-name="S" unicode="S" horiz-adv-x="523" 
d="M487 584l-76 -42c-20 55 -52 82 -96 82c-61 0 -97 -37 -97 -97c0 -57 32 -84 111 -125c47 -24 69 -39 96 -67s37 -63 37 -112c0 -71 -22 -126 -66 -166c-53 -49 -105 -65 -185 -65c-50 0 -94 19 -132 56c-38 38 -57 83 -57 136l80 43c7 -89 49 -151 128 -151
c80 0 140 47 140 131c0 64 -31 91 -107 128c-91 45 -137 104 -137 179c0 123 84 194 205 194c80 0 139 -56 156 -124z" />
    <glyph glyph-name="T" unicode="T" horiz-adv-x="507" 
d="M258 616h-197l17 84h483l-17 -84h-197l-120 -616h-89z" />
    <glyph glyph-name="U" unicode="U" horiz-adv-x="672" 
d="M76 238l89 462h89l-91 -468c-3 -17 -4 -31 -4 -40c0 -77 41 -116 122 -116c101 0 167 57 186 156l91 468h89l-89 -462c-31 -164 -127 -246 -288 -246c-60 0 -108 16 -145 49s-55 77 -55 130c0 23 2 46 6 67z" />
    <glyph glyph-name="V" unicode="V" horiz-adv-x="558" 
d="M226 125l300 575h95l-374 -700h-89l-97 700h93z" />
    <glyph glyph-name="W" unicode="W" horiz-adv-x="886" 
d="M577 130l249 570h94l-319 -700h-89l-55 480l-226 -480h-89l-52 700h93l28 -570l233 496h83z" />
    <glyph glyph-name="X" unicode="X" horiz-adv-x="531" 
d="M237 384l-118 316h94l86 -234l177 234h98l-243 -321l142 -379h-92l-112 297l-222 -297h-101z" />
    <glyph glyph-name="Y" unicode="Y" horiz-adv-x="484" 
d="M123 0l59 302l-126 398h94l91 -310l210 310h99l-279 -398l-59 -302h-89z" />
    <glyph glyph-name="Z" unicode="Z" horiz-adv-x="550" 
d="M411 616h-310l17 84h435l-9 -42l-424 -574h331l-17 -84h-455l8 42z" />
    <glyph glyph-name="bracketleft" unicode="[" horiz-adv-x="321" 
d="M210 -50h-188l154 800h189l-15 -76h-108l-125 -648h108z" />
    <glyph glyph-name="backslash" unicode="\" horiz-adv-x="495" 
d="M350 -50l-281 800h84l281 -800h-84z" />
    <glyph glyph-name="bracketright" unicode="]" horiz-adv-x="321" 
d="M96 674l15 76h189l-155 -800h-188l14 76h108l125 648h-108z" />
    <glyph glyph-name="asciicircum" unicode="^" horiz-adv-x="568" 
d="M70 421l186 279h68l186 -279h-83l-137 203l-137 -203h-83z" />
    <glyph glyph-name="underscore" unicode="_" horiz-adv-x="453" 
d="M355 -74h-399l15 74h399z" />
    <glyph glyph-name="grave" unicode="`" horiz-adv-x="206" 
d="M55 704h121l48 -144h-68z" />
    <glyph glyph-name="a" unicode="a" horiz-adv-x="586" 
d="M530 504l-97 -504h-85l12 62c-42 -47 -92 -70 -149 -70c-121 0 -184 84 -184 205c0 88 24 162 72 223s115 92 201 92c65 0 121 -35 134 -68l11 60h85zM235 68c38 0 71 13 98 38c56 52 76 125 76 198c0 81 -41 132 -116 132c-57 0 -100 -22 -131 -66s-46 -94 -46 -150
c0 -93 44 -152 119 -152z" />
    <glyph glyph-name="b" unicode="b" horiz-adv-x="596" 
d="M531 300c0 -87 -23 -160 -70 -219s-114 -89 -201 -89c-27 0 -54 7 -81 21c-26 15 -43 31 -51 49l-13 -62h-85l138 708h85l-51 -264c32 37 90 68 150 68c109 0 179 -72 179 -212zM267 68c55 0 97 22 128 66s47 95 47 154c0 99 -38 148 -113 148c-50 0 -92 -23 -126 -69
s-51 -98 -51 -156c0 -92 46 -143 115 -143z" />
    <glyph glyph-name="c" unicode="c" horiz-adv-x="540" 
d="M380 170l71 -37c-35 -53 -70 -90 -105 -111c-35 -20 -79 -30 -132 -30c-57 0 -102 19 -136 58s-51 90 -51 153c0 81 26 153 77 215c52 63 122 94 210 94c97 0 158 -47 181 -140l-76 -29c-17 62 -57 93 -120 93c-54 0 -98 -22 -132 -67c-34 -44 -51 -96 -51 -157
c0 -89 44 -144 113 -144c65 0 108 31 151 102z" />
    <glyph glyph-name="d" unicode="d" horiz-adv-x="612" 
d="M302 512c63 0 116 -28 139 -68l51 264h85l-138 -708h-85l13 62c-43 -47 -96 -70 -158 -70c-116 0 -182 75 -182 194c0 89 25 166 75 230s117 96 200 96zM116 208c0 -85 41 -140 116 -140c39 0 73 13 102 39c59 53 82 127 82 199c0 85 -48 130 -121 130
c-38 0 -71 -12 -100 -37c-56 -49 -79 -120 -79 -191z" />
    <glyph glyph-name="e" unicode="e" horiz-adv-x="562" 
d="M498 273l-8 -39h-373c-2 -13 -3 -25 -3 -36c0 -80 41 -130 117 -130c71 0 114 32 157 99l72 -35c-67 -99 -137 -140 -244 -140c-58 0 -104 19 -139 58s-52 91 -52 154c0 79 28 150 84 213s125 95 208 95c115 0 186 -74 186 -189c0 -14 -2 -31 -5 -50zM302 436
c-73 0 -137 -51 -166 -126h278c0 84 -37 126 -112 126z" />
    <glyph glyph-name="f" unicode="f" horiz-adv-x="339" 
d="M113 428h-72l15 76h72l6 33c21 120 80 171 187 171c23 0 47 -6 72 -18l-31 -72c-17 9 -34 14 -53 14c-49 0 -75 -24 -88 -88l-8 -40h112l-15 -76h-112l-83 -428h-85z" />
    <glyph glyph-name="g" unicode="g" horiz-adv-x="510" 
d="M84 311c0 59 19 107 56 144c38 38 88 57 149 57c33 0 64 -8 91 -23l94 48l30 -66l-75 -38c7 -17 11 -38 11 -64c0 -57 -20 -103 -59 -140s-88 -55 -147 -55c-29 0 -56 7 -81 20c-31 -12 -47 -30 -47 -55c0 -21 17 -38 45 -38h115c94 0 141 -40 141 -121
c0 -63 -24 -110 -73 -143c-48 -33 -107 -49 -177 -49c-52 0 -95 13 -129 40c-34 26 -51 61 -51 104c0 49 22 92 66 127c-14 15 -21 36 -21 63c0 47 28 84 84 113c-15 22 -22 47 -22 76zM241 29h-97c-11 0 -23 1 -36 2c-31 -16 -46 -43 -46 -81c0 -52 34 -90 110 -90
c39 0 73 8 102 25s44 43 44 80c0 43 -26 64 -77 64zM279 440c-63 0 -111 -47 -111 -114c0 -52 30 -80 77 -80c63 0 111 44 111 111c0 55 -30 83 -77 83z" />
    <glyph glyph-name="h" unicode="h" horiz-adv-x="584" 
d="M502 350l-68 -350h-85l64 333c2 12 3 24 3 36c0 45 -23 67 -69 67c-38 0 -76 -21 -115 -62c-38 -41 -63 -94 -76 -160l-41 -214h-85l137 708h85l-58 -298c49 68 113 102 190 102c75 0 123 -40 123 -112c0 -15 -2 -31 -5 -50z" />
    <glyph glyph-name="i" unicode="i" horiz-adv-x="276" 
d="M30 0l98 504h85l-98 -504h-85zM132 644c0 36 27 64 63 64s63 -28 63 -64c0 -35 -27 -62 -63 -62s-63 27 -63 62z" />
    <glyph glyph-name="j" unicode="j" horiz-adv-x="276" 
d="M-80 -212l-8 82c68 17 102 41 115 112l101 522h85l-103 -530c-23 -117 -78 -169 -190 -186zM132 644c0 36 27 64 63 64s63 -28 63 -64c0 -35 -27 -62 -63 -62s-63 27 -63 62z" />
    <glyph glyph-name="k" unicode="k" horiz-adv-x="508" 
d="M30 0l137 708h85l-80 -415l216 211h115l-249 -236l171 -268h-103l-158 253l-49 -253h-85z" />
    <glyph glyph-name="l" unicode="l" horiz-adv-x="306" 
d="M49 0l137 708h85l-137 -708h-85z" />
    <glyph glyph-name="m" unicode="m" horiz-adv-x="856" 
d="M774 355l-69 -355h-85l65 337c3 16 4 29 4 38c0 41 -21 61 -64 61c-35 0 -69 -21 -103 -62s-58 -97 -72 -167l-40 -207h-85l65 337c2 12 3 25 3 38c0 41 -21 61 -63 61c-35 0 -69 -21 -103 -62s-58 -97 -72 -167l-40 -207h-85l98 504h85l-18 -93c47 67 104 101 171 101
c69 0 112 -40 116 -105c51 70 110 105 179 105c78 0 117 -38 117 -113c0 -15 -1 -30 -4 -44z" />
    <glyph glyph-name="n" unicode="n" 
d="M496 355l-69 -355h-85l64 333c3 16 4 28 4 35c0 45 -22 68 -67 68c-36 0 -73 -21 -111 -63s-63 -96 -76 -162l-41 -211h-85l98 504h85l-18 -93c51 67 111 101 182 101c77 0 122 -41 122 -110c0 -16 -1 -32 -3 -47z" />
    <glyph glyph-name="o" unicode="o" horiz-adv-x="573" 
d="M27 204c0 83 23 153 69 210c53 65 124 98 213 98c124 0 199 -79 199 -212c0 -83 -23 -153 -69 -210c-53 -65 -124 -98 -213 -98c-124 0 -199 79 -199 212zM301 436c-56 0 -103 -24 -140 -71c-30 -38 -45 -88 -45 -149c0 -93 41 -148 118 -148c56 0 103 24 140 71
c30 38 45 88 45 149c0 93 -41 148 -118 148z" />
    <glyph glyph-name="p" unicode="p" horiz-adv-x="605" 
d="M265 -8c-63 0 -109 23 -139 68l-51 -264h-85l138 708h85l-13 -62c37 43 97 70 158 70c115 0 182 -74 182 -194c0 -89 -25 -166 -75 -230s-117 -96 -200 -96zM451 296c0 85 -41 140 -116 140c-39 0 -73 -13 -102 -40c-59 -52 -82 -126 -82 -198c0 -84 42 -130 121 -130
c38 0 71 12 99 37c57 49 80 120 80 191z" />
    <glyph glyph-name="q" unicode="q" horiz-adv-x="578" 
d="M27 204c0 87 23 160 70 219s114 89 201 89c27 0 54 -7 80 -22c27 -14 44 -30 52 -48l13 62h85l-138 -708h-85l51 264c-32 -37 -90 -68 -150 -68c-109 0 -179 72 -179 212zM291 436c-55 0 -98 -22 -129 -66s-46 -95 -46 -154c0 -99 38 -148 113 -148c50 0 92 23 126 69
s51 98 51 156c0 92 -46 143 -115 143z" />
    <glyph glyph-name="r" unicode="r" horiz-adv-x="437" 
d="M428 497l-31 -75c-17 9 -34 14 -53 14c-37 0 -74 -17 -110 -51c-35 -34 -60 -88 -75 -162l-44 -223h-85l98 504h85l-17 -86c40 63 94 94 163 94c30 0 53 -5 69 -15z" />
    <glyph glyph-name="s" unicode="s" horiz-adv-x="460" 
d="M259 512c63 0 118 -32 145 -84l-66 -49c-25 38 -55 57 -89 57c-39 0 -68 -24 -68 -63c0 -35 25 -55 69 -75c37 -16 55 -25 83 -48c29 -21 43 -53 43 -92c0 -103 -75 -166 -182 -166c-49 0 -90 14 -122 42c-32 29 -51 62 -56 101l74 36c14 -69 52 -103 114 -103
c51 0 83 30 83 74c0 25 -6 42 -26 57s-30 19 -66 35c-66 29 -99 74 -99 134c0 89 64 144 163 144z" />
    <glyph glyph-name="t" unicode="t" horiz-adv-x="350" 
d="M116 428h-87l14 76h87l30 151l94 53l-40 -204h127l-14 -76h-127l-52 -268c-3 -17 -5 -29 -5 -36c0 -37 18 -56 54 -56c21 0 41 5 60 16l6 -73c-25 -13 -53 -19 -86 -19c-76 0 -119 41 -119 117c0 11 2 30 7 58z" />
    <glyph glyph-name="u" unicode="u" 
d="M55 149l69 355h85l-64 -333c-3 -16 -4 -28 -4 -35c0 -45 22 -68 67 -68c36 0 73 21 111 63s63 96 76 162l41 211h85l-98 -504h-85l18 93c-51 -67 -111 -101 -182 -101c-77 0 -122 41 -122 110c0 16 1 32 3 47z" />
    <glyph glyph-name="v" unicode="v" horiz-adv-x="439" 
d="M160 107l200 397h89l-261 -504h-89l-71 504h85z" />
    <glyph glyph-name="w" unicode="w" horiz-adv-x="723" 
d="M450 113l176 391h89l-245 -504h-82l-22 381l-171 -381h-82l-58 504h86l31 -391l173 391h86z" />
    <glyph glyph-name="x" unicode="x" horiz-adv-x="462" 
d="M179 275l-98 229h92l67 -160l126 160h98l-192 -238l107 -266h-89l-76 190l-149 -190h-101z" />
    <glyph glyph-name="y" unicode="y" horiz-adv-x="466" 
d="M188 140l194 364h89l-385 -708h-89l125 236l-81 472h89z" />
    <glyph glyph-name="z" unicode="z" horiz-adv-x="468" 
d="M309 428h-227l14 76h347l-7 -36l-310 -392h248l-14 -76h-365l7 36z" />
    <glyph glyph-name="braceleft" unicode="{" horiz-adv-x="315" 
d="M62 50l36 182c3 16 4 26 4 31c0 36 -20 49 -69 49l15 76c60 0 83 20 95 80l36 182c12 61 55 100 120 100h48l-15 -76h-23c-30 0 -48 -15 -53 -45l-35 -181c-12 -63 -42 -86 -89 -98c35 -9 53 -31 53 -66c0 -9 -1 -20 -3 -32l-35 -181c-1 -8 -2 -13 -2 -15
c0 -21 10 -30 39 -30h23l-15 -76h-48c-55 0 -84 29 -84 78c0 4 1 11 2 22z" />
    <glyph glyph-name="bar" unicode="|" horiz-adv-x="245" 
d="M100 -50v800h80v-800h-80z" />
    <glyph glyph-name="braceright" unicode="}" horiz-adv-x="315" 
d="M170 232l-36 -182c-12 -63 -55 -100 -119 -100h-47l14 76h23c30 0 48 15 53 45l35 181c12 63 42 86 90 98c-36 9 -54 31 -54 65c0 10 1 21 3 33l35 181c1 8 2 13 2 15c0 21 -11 30 -39 30h-23l15 76h48c55 0 83 -26 83 -77c0 -9 -1 -16 -2 -23l-36 -182
c-3 -16 -4 -26 -4 -31c0 -36 20 -49 69 -49l-15 -76c-60 0 -84 -20 -95 -80z" />
    <glyph glyph-name="asciitilde" unicode="~" horiz-adv-x="627" 
d="M100 268l-40 54c42 57 92 85 149 85c29 0 61 -8 96 -25s64 -25 87 -25c36 0 70 15 101 45l40 -55c-41 -56 -91 -84 -149 -84c-29 0 -61 8 -96 25s-64 25 -87 25c-36 0 -70 -15 -101 -45z" />
    <glyph glyph-name="uni00A0" unicode="&#xa0;" horiz-adv-x="232" 
 />
    <glyph glyph-name="exclamdown" unicode="&#xa1;" horiz-adv-x="347" 
d="M197 294l-73 -500h-114l121 500h66zM259 429c0 -40 -30 -71 -70 -71s-70 31 -70 71c0 39 30 68 70 68s70 -29 70 -68z" />
    <glyph glyph-name="cent" unicode="&#xa2;" horiz-adv-x="553" 
d="M413 268l71 -37c-61 -95 -117 -132 -201 -140l-27 -141h-81l28 144c-89 19 -144 98 -144 207c0 73 22 140 65 200c44 60 103 95 178 106l28 143h81l-27 -143c75 -9 123 -55 144 -137l-76 -29c-17 62 -57 93 -120 93c-54 0 -98 -22 -133 -67c-34 -44 -51 -96 -51 -157
c0 -89 45 -144 114 -144c65 0 108 31 151 102z" />
    <glyph glyph-name="sterling" unicode="&#xa3;" horiz-adv-x="562" 
d="M142 324h-80l16 80h53c-3 20 -4 42 -4 67c0 147 91 237 238 237c42 0 78 -13 109 -39s51 -59 58 -99l-78 -31c-19 63 -48 89 -104 89c-89 0 -140 -65 -140 -172c0 -23 1 -40 3 -52h169l-16 -80h-143v-20c0 -49 -9 -88 -28 -118c-18 -29 -47 -61 -86 -96
c26 14 55 21 88 21c19 0 40 -7 63 -20s41 -19 52 -19c19 0 35 5 48 16s32 31 55 60l57 -52c-56 -76 -105 -104 -170 -104c-27 0 -53 7 -79 20c-25 13 -48 20 -67 20c-40 0 -80 -13 -121 -40l-44 62c44 37 70 61 102 102c33 41 50 89 50 141c0 12 0 21 -1 27z" />
    <glyph glyph-name="currency" unicode="&#xa4;" horiz-adv-x="569" 
d="M106 422l-88 67l69 69l67 -87c68 51 162 51 230 0l67 87l69 -69l-88 -67c47 -68 47 -162 0 -230l88 -67l-69 -69l-67 87c-68 -51 -162 -51 -230 0l-67 -87l-69 69l88 67c-47 68 -47 162 0 230zM184 398c-21 -23 -32 -54 -32 -91s11 -68 32 -91s50 -35 85 -35s64 12 85 35
s32 54 32 91s-11 68 -32 91s-50 35 -85 35s-64 -12 -85 -35z" />
    <glyph glyph-name="yen" unicode="&#xa5;" horiz-adv-x="561" 
d="M222 387l-97 313h96l82 -302l203 302h100l-218 -313h116l-16 -80h-156l-15 -80h156l-16 -80h-156l-29 -147h-89l29 147h-156l16 80h156l15 80h-156l16 80h119z" />
    <glyph glyph-name="brokenbar" unicode="&#xa6;" horiz-adv-x="245" 
d="M100 -50v349h80v-349h-80zM180 750v-349h-80v349h80z" />
    <glyph glyph-name="section" unicode="&#xa7;" horiz-adv-x="568" 
d="M63 260c0 69 38 120 114 154c-22 30 -33 62 -33 95c0 58 19 106 58 143s90 56 153 56c88 0 153 -57 158 -148l-80 -23c-6 61 -37 91 -94 91c-61 0 -106 -39 -106 -102c0 -48 24 -83 44 -96c10 -7 28 -17 55 -30s46 -24 59 -32c55 -32 85 -68 85 -132
c0 -68 -39 -119 -116 -154c22 -30 33 -62 33 -95c0 -58 -19 -106 -58 -143s-90 -56 -153 -56c-88 0 -153 57 -158 148l80 23c6 -61 37 -91 94 -91c61 0 106 39 106 102c0 48 -24 83 -44 96c-10 7 -28 17 -55 30s-46 24 -59 32c-53 32 -83 68 -83 132zM228 367
c-57 -21 -85 -52 -85 -95c0 -31 13 -55 38 -72c13 -9 25 -16 37 -23c25 -13 67 -32 91 -48c57 21 85 52 85 95c0 31 -13 55 -38 72c-13 9 -25 16 -38 23c-24 13 -66 32 -90 48z" />
    <glyph glyph-name="dieresis" unicode="&#xa8;" horiz-adv-x="302" 
d="M114 708c33 0 57 -25 57 -57s-24 -56 -57 -56c-31 0 -56 24 -56 56s25 57 56 57zM280 708c33 0 57 -25 57 -57s-24 -56 -57 -56c-31 0 -56 24 -56 56s25 57 56 57z" />
    <glyph glyph-name="copyright" unicode="&#xa9;" horiz-adv-x="900" 
d="M178 71c-72 75 -108 168 -108 279s36 204 108 278c73 75 163 112 272 112s199 -37 271 -112c73 -74 109 -167 109 -278s-36 -204 -109 -279c-72 -74 -162 -111 -271 -111s-199 37 -272 111zM233 574c-55 -60 -83 -135 -83 -224s28 -164 83 -224s128 -90 217 -90
s162 30 217 90s83 135 83 224s-28 164 -83 224s-128 90 -217 90s-162 -30 -217 -90zM553 282l70 -17c-16 -81 -86 -131 -173 -131c-52 0 -98 18 -137 55s-59 91 -59 161s20 123 59 160s85 56 137 56c87 0 157 -50 173 -131l-70 -17c-17 52 -51 78 -103 78
c-71 0 -120 -47 -120 -146s49 -146 120 -146c52 0 86 26 103 78z" />
    <glyph glyph-name="ordfeminine" unicode="&#xaa;" horiz-adv-x="420" 
d="M373 561v-261h-56l-11 54c-29 -39 -70 -58 -123 -58c-75 0 -125 39 -125 118c0 87 73 130 194 130h50v18c0 53 -28 80 -84 80c-43 0 -70 -20 -81 -61l-65 16c17 68 69 107 146 107c96 0 155 -44 155 -143zM131 414c0 -38 21 -57 62 -57c56 0 109 38 109 111v18h-41
c-87 0 -130 -24 -130 -72z" />
    <glyph glyph-name="guillemotleft" unicode="&#xab;" horiz-adv-x="616" 
d="M274 80l-239 199l13 62l316 204l-21 -107l-222 -135l170 -135zM504 80l-239 199l13 62l316 204l-21 -107l-222 -135l170 -135z" />
    <glyph glyph-name="logicalnot" unicode="&#xac;" horiz-adv-x="542" 
d="M391 313h-349v76h433v-247h-84v171z" />
    <glyph glyph-name="uni00AD" unicode="&#xad;" horiz-adv-x="479" 
d="M394 280h-339l15 74h339z" />
    <glyph glyph-name="registered" unicode="&#xae;" horiz-adv-x="900" 
d="M178 71c-72 75 -108 168 -108 279s36 204 108 278c73 75 163 112 272 112s199 -37 271 -112c73 -74 109 -167 109 -278s-36 -204 -109 -279c-72 -74 -162 -111 -271 -111s-199 37 -272 111zM233 574c-55 -60 -83 -135 -83 -224s28 -164 83 -224s128 -90 217 -90
s162 30 217 90s83 135 83 224s-28 164 -83 224s-128 90 -217 90s-162 -30 -217 -90zM628 137h-82l-126 182h-38v-182h-72v426h153c85 0 132 -47 132 -122c0 -61 -39 -107 -94 -118zM462 493h-80v-104h80c41 0 61 17 61 52s-20 52 -61 52z" />
    <glyph glyph-name="overscore" unicode="&#xaf;" horiz-adv-x="286" 
d="M316 632h-249l15 76h249z" />
    <glyph glyph-name="degree" unicode="&#xb0;" horiz-adv-x="351" 
d="M131 513c-21 21 -31 48 -31 80s10 58 31 79s48 32 81 32s59 -11 80 -32s32 -47 32 -79s-11 -59 -32 -80s-47 -31 -80 -31s-60 10 -81 31zM177 628c-17 -17 -17 -52 0 -71c17 -17 53 -17 70 0c17 19 17 54 0 71c-17 19 -53 19 -70 0z" />
    <glyph glyph-name="plusminus" unicode="&#xb1;" horiz-adv-x="572" 
d="M249 436v183h74v-183h183v-74h-183v-183h-74v183h-183v74h183zM506 0h-440v74h440v-74z" />
    <glyph glyph-name="uni00B2" unicode="&#xb2;" horiz-adv-x="447" 
d="M197 575l-61 17c17 68 70 112 142 112c60 0 103 -36 103 -91c0 -53 -13 -85 -60 -132l-120 -121h146l-12 -60h-255l5 25l179 184c12 12 21 21 26 28c12 13 24 36 24 60c0 31 -15 47 -45 47c-32 0 -60 -26 -72 -69z" />
    <glyph glyph-name="uni00B3" unicode="&#xb3;" horiz-adv-x="429" 
d="M96 415l66 9c0 -44 23 -68 59 -68c48 0 79 36 79 88c0 39 -18 58 -54 58c-14 0 -27 -4 -39 -11l-23 41l99 108h-128l12 60h227l-5 -23l-118 -126c60 0 96 -37 96 -100c0 -92 -65 -155 -157 -155c-69 0 -114 47 -114 119z" />
    <glyph glyph-name="acute" unicode="&#xb4;" horiz-adv-x="210" 
d="M120 560h-72l97 144h123z" />
    <glyph glyph-name="mu" unicode="&#xb5;" horiz-adv-x="578" 
d="M159 3v-207h-84v708h84v-333c0 -69 29 -103 87 -103c39 0 73 21 101 62c29 41 43 96 43 163v211h84v-504h-84v93c-38 -67 -94 -101 -167 -101c-24 0 -45 4 -64 11z" />
    <glyph glyph-name="mu" unicode="&#x3bc;" horiz-adv-x="578" 
d="M159 3v-207h-84v708h84v-333c0 -69 29 -103 87 -103c39 0 73 21 101 62c29 41 43 96 43 163v211h84v-504h-84v93c-38 -67 -94 -101 -167 -101c-24 0 -45 4 -64 11z" />
    <glyph glyph-name="paragraph" unicode="&#xb6;" horiz-adv-x="686" 
d="M80 480c0 69 22 123 67 162s100 58 167 58h351l-14 -76h-62l-161 -828h-85l161 828h-119l-161 -828h-85l100 518c-45 0 -82 16 -113 47c-31 32 -46 72 -46 119z" />
    <glyph glyph-name="middot" unicode="&#xb7;" horiz-adv-x="275" 
d="M80 349c0 35 27 63 63 63c35 0 63 -28 63 -63c0 -36 -28 -63 -63 -63c-36 0 -63 27 -63 63z" />
    <glyph glyph-name="cedilla" unicode="&#xb8;" horiz-adv-x="188" 
d="M66 -60h74l-111 -175l-89 45z" />
    <glyph glyph-name="uni00B9" unicode="&#xb9;" horiz-adv-x="332" 
d="M110 639l137 61h25l-77 -400h-65l60 307l-94 -41z" />
    <glyph glyph-name="ordmasculine" unicode="&#xba;" horiz-adv-x="420" 
d="M422 500c0 -57 -17 -105 -52 -145c-35 -39 -81 -59 -140 -59s-106 20 -141 59c-34 40 -51 88 -51 145s17 105 52 144c35 40 81 60 140 60s105 -20 140 -60s52 -88 52 -144zM141 602c-20 -27 -30 -61 -30 -102s10 -75 30 -102c21 -27 50 -40 89 -40s68 13 88 40
s30 61 30 102s-10 75 -30 102s-49 41 -88 41s-68 -14 -89 -41z" />
    <glyph glyph-name="guillemotright" unicode="&#xbb;" horiz-adv-x="616" 
d="M338 545l239 -199l-13 -62l-316 -204l21 107l222 135l-170 135zM108 545l239 -199l-13 -62l-316 -204l21 107l222 135l-170 135z" />
    <glyph glyph-name="onequarter" unicode="&#xbc;" horiz-adv-x="902" 
d="M149 639l137 61h25l-77 -400h-65l60 307l-94 -41zM80 15l676 718l46 -43l-677 -719zM667 0h-64l15 77h-177l5 26l217 297h81l-51 -263h51l-11 -60h-51zM662 307l-121 -170h88z" />
    <glyph glyph-name="onehalf" unicode="&#xbd;" horiz-adv-x="918" 
d="M149 639l137 61h25l-77 -400h-65l60 307l-94 -41zM626 275l-61 17c17 68 70 112 142 112c60 0 103 -36 103 -91c0 -53 -13 -85 -60 -132l-120 -121h146l-12 -60h-255l5 25l179 184c12 12 21 21 26 28c12 13 24 36 24 60c0 31 -15 47 -45 47c-32 0 -60 -26 -72 -69zM80 15
l676 718l46 -43l-677 -719z" />
    <glyph glyph-name="threequarters" unicode="&#xbe;" horiz-adv-x="973" 
d="M151 15l676 718l46 -43l-677 -719zM96 415l66 9c0 -44 23 -68 59 -68c48 0 79 36 79 88c0 39 -18 58 -54 58c-14 0 -27 -4 -39 -11l-23 41l99 108h-128l12 60h227l-5 -23l-118 -126c60 0 96 -37 96 -100c0 -92 -65 -155 -157 -155c-69 0 -114 47 -114 119zM735 0h-64
l15 77h-177l5 26l217 297h81l-51 -263h51l-11 -60h-51zM730 307l-121 -170h88z" />
    <glyph glyph-name="questiondown" unicode="&#xbf;" horiz-adv-x="445" 
d="M144 158l-65 29c41 80 78 106 145 106c72 0 120 -47 120 -114c0 -69 -39 -106 -112 -138l-98 -43c-41 -19 -61 -44 -61 -77c0 -41 31 -65 74 -65c51 0 89 32 116 97l77 -21c-31 -88 -104 -146 -203 -146c-91 0 -147 50 -147 130c0 67 34 104 98 135l119 57
c40 20 61 37 61 70c0 28 -20 45 -45 45c-35 0 -54 -21 -79 -65zM329 431c0 -39 -29 -68 -66 -68c-39 0 -68 29 -68 68c0 37 29 66 68 66c37 0 66 -29 66 -66z" />
    <glyph glyph-name="Agrave" unicode="&#xc0;" horiz-adv-x="574" 
d="M-57 0l372 700h85l106 -700h-89l-25 187h-261l-99 -187h-89zM380 271l-45 315l-160 -315h205zM229 900h121l48 -144h-68z" />
    <glyph glyph-name="Aacute" unicode="&#xc1;" horiz-adv-x="574" 
d="M-57 0l372 700h85l106 -700h-89l-25 187h-261l-99 -187h-89zM380 271l-45 315l-160 -315h205zM371 756h-72l97 144h123z" />
    <glyph glyph-name="Acircumflex" unicode="&#xc2;" horiz-adv-x="574" 
d="M-57 0l372 700h85l106 -700h-89l-25 187h-261l-99 -187h-89zM380 271l-45 315l-160 -315h205zM295 762h-98l179 164h31l124 -164h-89l-61 80z" />
    <glyph glyph-name="Atilde" unicode="&#xc3;" horiz-adv-x="574" 
d="M-57 0l372 700h85l106 -700h-89l-25 187h-261l-99 -187h-89zM380 271l-45 315l-160 -315h205zM226 781l-41 42c36 49 76 73 121 73c24 0 46 -7 66 -20c21 -13 39 -20 54 -20c25 0 50 12 73 35l41 -43c-36 -48 -76 -72 -121 -72c-24 0 -46 7 -67 20c-20 13 -38 20 -53 20
c-25 0 -50 -12 -73 -35z" />
    <glyph glyph-name="Adieresis" unicode="&#xc4;" horiz-adv-x="574" 
d="M-57 0l372 700h85l106 -700h-89l-25 187h-261l-99 -187h-89zM380 271l-45 315l-160 -315h205zM302 904c33 0 57 -25 57 -57s-24 -56 -57 -56c-31 0 -56 24 -56 56s25 57 56 57zM468 904c33 0 57 -25 57 -57s-24 -56 -57 -56c-31 0 -56 24 -56 56s25 57 56 57z" />
    <glyph glyph-name="Aring" unicode="&#xc5;" horiz-adv-x="574" 
d="M-57 0l372 700h85l106 -700h-89l-25 187h-261l-99 -187h-89zM380 271l-45 315l-160 -315h205zM289 849c0 56 43 100 99 100c57 0 99 -44 99 -100c0 -55 -42 -96 -99 -96c-56 0 -99 41 -99 96zM345 850c-5 -57 91 -57 86 0c5 60 -91 60 -86 0z" />
    <glyph glyph-name="AE" unicode="&#xc6;" horiz-adv-x="836" 
d="M-58 0l444 700h455l-17 -84h-307l-39 -201h250l-16 -84h-250l-48 -247h317l-17 -84h-406l37 187h-187l-117 -187h-99zM422 585h-16l-196 -314h151z" />
    <glyph glyph-name="Ccedilla" unicode="&#xc7;" horiz-adv-x="662" 
d="M517 229l78 -25c-65 -141 -165 -212 -302 -212c-76 0 -137 24 -184 73s-70 118 -70 207c0 75 15 146 45 211s75 119 135 161c60 43 129 64 208 64c66 0 119 -21 160 -62s63 -91 67 -150l-85 -23c-16 101 -69 151 -158 151c-59 0 -110 -17 -154 -52
c-87 -68 -126 -174 -126 -290c0 -133 60 -206 173 -206c92 0 156 45 213 153zM248 -60h74l-111 -175l-89 45z" />
    <glyph glyph-name="Egrave" unicode="&#xc8;" horiz-adv-x="563" 
d="M35 0l137 700h396l-17 -84h-307l-39 -201h250l-16 -84h-250l-48 -247h317l-17 -84h-406zM293 900h121l48 -144h-68z" />
    <glyph glyph-name="Eacute" unicode="&#xc9;" horiz-adv-x="563" 
d="M35 0l137 700h396l-17 -84h-307l-39 -201h250l-16 -84h-250l-48 -247h317l-17 -84h-406zM372 756h-72l97 144h123z" />
    <glyph glyph-name="Ecircumflex" unicode="&#xca;" horiz-adv-x="563" 
d="M35 0l137 700h396l-17 -84h-307l-39 -201h250l-16 -84h-250l-48 -247h317l-17 -84h-406zM310 762h-98l179 164h31l124 -164h-89l-61 80z" />
    <glyph glyph-name="Edieresis" unicode="&#xcb;" horiz-adv-x="563" 
d="M35 0l137 700h396l-17 -84h-307l-39 -201h250l-16 -84h-250l-48 -247h317l-17 -84h-406zM299 904c33 0 57 -25 57 -57s-24 -56 -57 -56c-31 0 -56 24 -56 56s25 57 56 57zM465 904c33 0 57 -25 57 -57s-24 -56 -57 -56c-31 0 -56 24 -56 56s25 57 56 57z" />
    <glyph glyph-name="Igrave" unicode="&#xcc;" horiz-adv-x="296" 
d="M35 0l137 700h89l-137 -700h-89zM114 900h121l48 -144h-68z" />
    <glyph glyph-name="Iacute" unicode="&#xcd;" horiz-adv-x="296" 
d="M35 0l137 700h89l-137 -700h-89zM237 756h-72l97 144h123z" />
    <glyph glyph-name="Icircumflex" unicode="&#xce;" horiz-adv-x="296" 
d="M35 0l137 700h89l-137 -700h-89zM153 762h-98l179 164h31l124 -164h-89l-61 80z" />
    <glyph glyph-name="Idieresis" unicode="&#xcf;" horiz-adv-x="296" 
d="M35 0l137 700h89l-137 -700h-89zM156 904c33 0 57 -25 57 -57s-24 -56 -57 -56c-31 0 -56 24 -56 56s25 57 56 57zM322 904c33 0 57 -25 57 -57s-24 -56 -57 -56c-31 0 -56 24 -56 56s25 57 56 57z" />
    <glyph glyph-name="Eth" unicode="&#xd0;" horiz-adv-x="669" 
d="M95 308h-58l17 84h57l61 308h180c168 0 276 -98 276 -279c0 -119 -37 -219 -112 -300c-74 -81 -170 -121 -287 -121h-194zM333 616h-89l-44 -224h130l-17 -84h-129l-43 -224h89c92 0 165 31 220 93c55 63 83 141 83 235c0 136 -71 204 -200 204z" />
    <glyph glyph-name="Ntilde" unicode="&#xd1;" horiz-adv-x="706" 
d="M475 153l107 547h89l-137 -700h-99l-205 545l-106 -545h-89l137 700h99zM304 781l-41 42c36 49 76 73 121 73c24 0 46 -7 66 -20c21 -13 39 -20 54 -20c25 0 50 12 73 35l41 -43c-36 -48 -76 -72 -121 -72c-24 0 -46 7 -67 20c-20 13 -38 20 -53 20
c-25 0 -50 -12 -73 -35z" />
    <glyph glyph-name="Ograve" unicode="&#xd2;" horiz-adv-x="713" 
d="M425 708c73 0 133 -25 178 -76c46 -50 69 -119 69 -207c0 -146 -50 -262 -151 -348c-66 -57 -144 -85 -235 -85c-73 0 -133 25 -179 75c-45 51 -68 120 -68 208c0 146 50 262 151 348c66 57 144 85 235 85zM410 624c-69 0 -130 -27 -181 -82c-65 -69 -98 -156 -98 -259
c0 -133 59 -207 170 -207c69 0 130 27 181 82c65 69 98 156 98 259c0 133 -59 207 -170 207zM314 900h121l48 -144h-68z" />
    <glyph glyph-name="Oacute" unicode="&#xd3;" horiz-adv-x="713" 
d="M425 708c73 0 133 -25 178 -76c46 -50 69 -119 69 -207c0 -146 -50 -262 -151 -348c-66 -57 -144 -85 -235 -85c-73 0 -133 25 -179 75c-45 51 -68 120 -68 208c0 146 50 262 151 348c66 57 144 85 235 85zM410 624c-69 0 -130 -27 -181 -82c-65 -69 -98 -156 -98 -259
c0 -133 59 -207 170 -207c69 0 130 27 181 82c65 69 98 156 98 259c0 133 -59 207 -170 207zM427 756h-72l97 144h123z" />
    <glyph glyph-name="Ocircumflex" unicode="&#xd4;" horiz-adv-x="713" 
d="M425 708c73 0 133 -25 178 -76c46 -50 69 -119 69 -207c0 -146 -50 -262 -151 -348c-66 -57 -144 -85 -235 -85c-73 0 -133 25 -179 75c-45 51 -68 120 -68 208c0 146 50 262 151 348c66 57 144 85 235 85zM410 624c-69 0 -130 -27 -181 -82c-65 -69 -98 -156 -98 -259
c0 -133 59 -207 170 -207c69 0 130 27 181 82c65 69 98 156 98 259c0 133 -59 207 -170 207zM357 762h-98l179 164h31l124 -164h-89l-61 80z" />
    <glyph glyph-name="Otilde" unicode="&#xd5;" horiz-adv-x="713" 
d="M425 708c73 0 133 -25 178 -76c46 -50 69 -119 69 -207c0 -146 -50 -262 -151 -348c-66 -57 -144 -85 -235 -85c-73 0 -133 25 -179 75c-45 51 -68 120 -68 208c0 146 50 262 151 348c66 57 144 85 235 85zM410 624c-69 0 -130 -27 -181 -82c-65 -69 -98 -156 -98 -259
c0 -133 59 -207 170 -207c69 0 130 27 181 82c65 69 98 156 98 259c0 133 -59 207 -170 207zM308 781l-41 42c36 49 76 73 121 73c24 0 46 -7 66 -20c21 -13 39 -20 54 -20c25 0 50 12 73 35l41 -43c-36 -48 -76 -72 -121 -72c-24 0 -46 7 -67 20c-20 13 -38 20 -53 20
c-25 0 -50 -12 -73 -35z" />
    <glyph glyph-name="Odieresis" unicode="&#xd6;" horiz-adv-x="713" 
d="M425 708c73 0 133 -25 178 -76c46 -50 69 -119 69 -207c0 -146 -50 -262 -151 -348c-66 -57 -144 -85 -235 -85c-73 0 -133 25 -179 75c-45 51 -68 120 -68 208c0 146 50 262 151 348c66 57 144 85 235 85zM410 624c-69 0 -130 -27 -181 -82c-65 -69 -98 -156 -98 -259
c0 -133 59 -207 170 -207c69 0 130 27 181 82c65 69 98 156 98 259c0 133 -59 207 -170 207zM361 904c33 0 57 -25 57 -57s-24 -56 -57 -56c-31 0 -56 24 -56 56s25 57 56 57zM527 904c33 0 57 -25 57 -57s-24 -56 -57 -56c-31 0 -56 24 -56 56s25 57 56 57z" />
    <glyph glyph-name="multiply" unicode="&#xd7;" horiz-adv-x="552" 
d="M276 371l158 158l52 -52l-158 -158l158 -158l-52 -52l-158 158l-158 -158l-52 52l158 158l-158 158l52 52z" />
    <glyph glyph-name="Oslash" unicode="&#xd8;" horiz-adv-x="713" 
d="M426 708c67 0 123 -21 167 -63l81 84l50 -48l-89 -92c25 -47 38 -101 38 -164c0 -146 -50 -262 -151 -348c-66 -57 -144 -85 -235 -85c-67 0 -123 21 -167 63l-81 -84l-50 48l88 92c-25 45 -37 100 -37 164c0 146 50 262 151 348c66 57 144 85 235 85zM581 417
c0 35 -5 69 -15 100l-383 -397c29 -29 69 -44 119 -44c69 0 130 27 181 82c65 69 98 156 98 259zM411 624c-69 0 -130 -27 -181 -82c-65 -69 -98 -156 -98 -259c0 -39 5 -73 15 -101l382 397c-28 30 -67 45 -118 45z" />
    <glyph glyph-name="Ugrave" unicode="&#xd9;" horiz-adv-x="672" 
d="M76 238l89 462h89l-91 -468c-3 -17 -4 -31 -4 -40c0 -77 41 -116 122 -116c101 0 167 57 186 156l91 468h89l-89 -462c-31 -164 -127 -246 -288 -246c-60 0 -108 16 -145 49s-55 77 -55 130c0 23 2 46 6 67zM306 900h121l48 -144h-68z" />
    <glyph glyph-name="Uacute" unicode="&#xda;" horiz-adv-x="672" 
d="M76 238l89 462h89l-91 -468c-3 -17 -4 -31 -4 -40c0 -77 41 -116 122 -116c101 0 167 57 186 156l91 468h89l-89 -462c-31 -164 -127 -246 -288 -246c-60 0 -108 16 -145 49s-55 77 -55 130c0 23 2 46 6 67zM412 756h-72l97 144h123z" />
    <glyph glyph-name="Ucircumflex" unicode="&#xdb;" horiz-adv-x="672" 
d="M76 238l89 462h89l-91 -468c-3 -17 -4 -31 -4 -40c0 -77 41 -116 122 -116c101 0 167 57 186 156l91 468h89l-89 -462c-31 -164 -127 -246 -288 -246c-60 0 -108 16 -145 49s-55 77 -55 130c0 23 2 46 6 67zM342 762h-98l179 164h31l124 -164h-89l-61 80z" />
    <glyph glyph-name="Udieresis" unicode="&#xdc;" horiz-adv-x="671" 
d="M76 238l89 462h89l-91 -468c-3 -17 -4 -31 -4 -40c0 -77 41 -116 122 -116c101 0 167 57 186 156l91 468h89l-89 -462c-31 -164 -127 -246 -288 -246c-60 0 -108 16 -145 49s-55 77 -55 130c0 23 2 46 6 67zM344 904c33 0 57 -25 57 -57s-24 -56 -57 -56
c-31 0 -56 24 -56 56s25 57 56 57zM510 904c33 0 57 -25 57 -57s-24 -56 -57 -56c-31 0 -56 24 -56 56s25 57 56 57z" />
    <glyph glyph-name="Yacute" unicode="&#xdd;" horiz-adv-x="484" 
d="M123 0l59 302l-126 398h94l91 -310l210 310h99l-279 -398l-59 -302h-89zM309 756h-72l97 144h123z" />
    <glyph glyph-name="Thorn" unicode="&#xde;" horiz-adv-x="578" 
d="M124 0h-89l136 700h89l-29 -150h135c113 0 187 -65 187 -166c0 -152 -99 -234 -258 -234h-142zM169 234h153c83 0 138 49 138 134c0 61 -33 98 -100 98h-146z" />
    <glyph glyph-name="germandbls" unicode="&#xdf;" horiz-adv-x="578" 
d="M105 344h-50l14 76h50l17 85c13 65 40 115 82 150s91 53 146 53c96 0 155 -59 155 -152c0 -86 -39 -143 -116 -171c57 -17 102 -70 102 -158c0 -74 -24 -132 -71 -173s-107 -62 -178 -62c-37 0 -64 2 -83 7l15 76c22 -5 45 -7 70 -7c104 0 162 52 162 147
c0 84 -49 129 -126 129h-27l14 76h35c73 0 122 45 122 118c0 60 -33 94 -89 94c-65 0 -114 -47 -130 -130l-98 -502h-83z" />
    <glyph glyph-name="agrave" unicode="&#xe0;" horiz-adv-x="586" 
d="M348 0l12 62c-42 -47 -92 -70 -149 -70c-121 0 -184 84 -184 205c0 88 24 162 72 223s115 92 201 92c65 0 121 -35 134 -68l11 60h85l-97 -504h-85zM235 68c76 0 134 60 157 129c11 35 17 70 17 107c0 81 -41 132 -116 132c-57 0 -100 -22 -131 -66s-46 -94 -46 -150
c0 -93 44 -152 119 -152zM211 704h121l48 -144h-68z" />
    <glyph glyph-name="aacute" unicode="&#xe1;" horiz-adv-x="586" 
d="M348 0l12 62c-42 -47 -92 -70 -149 -70c-121 0 -184 84 -184 205c0 88 24 162 72 223s115 92 201 92c65 0 121 -35 134 -68l11 60h85l-97 -504h-85zM235 68c76 0 134 60 157 129c11 35 17 70 17 107c0 81 -41 132 -116 132c-57 0 -100 -22 -131 -66s-46 -94 -46 -150
c0 -93 44 -152 119 -152zM322 560h-72l97 144h123z" />
    <glyph glyph-name="acircumflex" unicode="&#xe2;" horiz-adv-x="586" 
d="M348 0l12 62c-42 -47 -92 -70 -149 -70c-121 0 -184 84 -184 205c0 88 24 162 72 223s115 92 201 92c65 0 121 -35 134 -68l11 60h85l-97 -504h-85zM235 68c76 0 134 60 157 129c11 35 17 70 17 107c0 81 -41 132 -116 132c-57 0 -100 -22 -131 -66s-46 -94 -46 -150
c0 -93 44 -152 119 -152zM268 566h-98l179 164h31l124 -164h-89l-61 80z" />
    <glyph glyph-name="atilde" unicode="&#xe3;" horiz-adv-x="586" 
d="M348 0l12 62c-42 -47 -92 -70 -149 -70c-121 0 -184 84 -184 205c0 88 24 162 72 223s115 92 201 92c65 0 121 -35 134 -68l11 60h85l-97 -504h-85zM235 68c76 0 134 60 157 129c11 35 17 70 17 107c0 81 -41 132 -116 132c-57 0 -100 -22 -131 -66s-46 -94 -46 -150
c0 -93 44 -152 119 -152zM214 585l-41 42c36 49 76 73 121 73c24 0 46 -7 66 -20c21 -13 39 -20 54 -20c25 0 50 12 73 35l41 -43c-36 -48 -76 -72 -121 -72c-24 0 -46 7 -67 20c-20 13 -38 20 -53 20c-25 0 -50 -12 -73 -35z" />
    <glyph glyph-name="adieresis" unicode="&#xe4;" horiz-adv-x="586" 
d="M348 0l12 62c-42 -47 -92 -70 -149 -70c-121 0 -184 84 -184 205c0 88 24 162 72 223s115 92 201 92c65 0 121 -35 134 -68l11 60h85l-97 -504h-85zM235 68c76 0 134 60 157 129c11 35 17 70 17 107c0 81 -41 132 -116 132c-57 0 -100 -22 -131 -66s-46 -94 -46 -150
c0 -93 44 -152 119 -152zM271 708c33 0 57 -25 57 -57s-24 -56 -57 -56c-31 0 -56 24 -56 56s25 57 56 57zM437 708c33 0 57 -25 57 -57s-24 -56 -57 -56c-31 0 -56 24 -56 56s25 57 56 57z" />
    <glyph glyph-name="aring" unicode="&#xe5;" horiz-adv-x="586" 
d="M348 0l12 62c-42 -47 -92 -70 -149 -70c-121 0 -184 84 -184 205c0 88 24 162 72 223s115 92 201 92c65 0 121 -35 134 -68l11 60h85l-97 -504h-85zM235 68c76 0 134 60 157 129c11 35 17 70 17 107c0 81 -41 132 -116 132c-57 0 -100 -22 -131 -66s-46 -94 -46 -150
c0 -93 44 -152 119 -152zM253 653c0 56 43 100 99 100c57 0 99 -44 99 -100c0 -55 -42 -96 -99 -96c-56 0 -99 41 -99 96zM309 654c-5 -57 91 -57 86 0c5 60 -91 60 -86 0z" />
    <glyph glyph-name="ae" unicode="&#xe6;" horiz-adv-x="891" 
d="M827 273l-8 -39h-374c-2 -13 -3 -25 -3 -36c0 -80 42 -130 118 -130c71 0 114 32 157 99l72 -35c-67 -99 -137 -140 -244 -140c-80 0 -142 41 -171 109c-45 -73 -108 -109 -187 -109c-101 0 -160 56 -160 139c0 124 91 179 224 179h122l5 22c1 7 2 15 2 24
c0 53 -31 80 -93 80c-53 0 -90 -27 -113 -81l-76 19c32 87 105 138 204 138c69 0 125 -30 149 -83c55 55 120 83 195 83c115 0 186 -74 186 -189c0 -14 -2 -31 -5 -50zM197 68c73 0 137 47 157 154l2 12h-123c-69 0 -117 -30 -117 -91c0 -47 32 -75 81 -75zM631 436
c-73 0 -137 -51 -166 -126h278c0 84 -37 126 -112 126z" />
    <glyph glyph-name="ccedilla" unicode="&#xe7;" horiz-adv-x="540" 
d="M380 170l71 -37c-35 -53 -70 -90 -105 -111c-35 -20 -79 -30 -132 -30c-57 0 -102 19 -136 58s-51 90 -51 153c0 81 26 153 77 215c52 63 122 94 210 94c97 0 158 -47 181 -140l-76 -29c-17 62 -57 93 -120 93c-54 0 -98 -22 -132 -67c-34 -44 -51 -96 -51 -157
c0 -89 44 -144 113 -144c65 0 108 31 151 102zM201 -60h74l-111 -175l-89 45z" />
    <glyph glyph-name="egrave" unicode="&#xe8;" horiz-adv-x="562" 
d="M498 273l-8 -39h-373c-2 -13 -3 -25 -3 -36c0 -80 41 -130 117 -130c71 0 114 32 157 99l72 -35c-67 -99 -137 -140 -244 -140c-58 0 -104 19 -139 58s-52 91 -52 154c0 79 28 150 84 213s125 95 208 95c115 0 186 -74 186 -189c0 -14 -2 -31 -5 -50zM302 436
c-73 0 -137 -51 -166 -126h278c0 84 -37 126 -112 126zM225 704h121l48 -144h-68z" />
    <glyph glyph-name="eacute" unicode="&#xe9;" horiz-adv-x="562" 
d="M498 273l-8 -39h-373c-2 -13 -3 -25 -3 -36c0 -80 41 -130 117 -130c71 0 114 32 157 99l72 -35c-67 -99 -137 -140 -244 -140c-58 0 -104 19 -139 58s-52 91 -52 154c0 79 28 150 84 213s125 95 208 95c115 0 186 -74 186 -189c0 -14 -2 -31 -5 -50zM302 436
c-73 0 -137 -51 -166 -126h278c0 84 -37 126 -112 126zM330 560h-72l97 144h123z" />
    <glyph glyph-name="ecircumflex" unicode="&#xea;" horiz-adv-x="562" 
d="M498 273l-8 -39h-373c-2 -13 -3 -25 -3 -36c0 -80 41 -130 117 -130c71 0 114 32 157 99l72 -35c-67 -99 -137 -140 -244 -140c-58 0 -104 19 -139 58s-52 91 -52 154c0 79 28 150 84 213s125 95 208 95c115 0 186 -74 186 -189c0 -14 -2 -31 -5 -50zM302 436
c-73 0 -137 -51 -166 -126h278c0 84 -37 126 -112 126zM267 566h-98l179 164h31l124 -164h-89l-61 80z" />
    <glyph glyph-name="edieresis" unicode="&#xeb;" horiz-adv-x="562" 
d="M498 273l-8 -39h-373c-2 -13 -3 -25 -3 -36c0 -80 41 -130 117 -130c71 0 114 32 157 99l72 -35c-67 -99 -137 -140 -244 -140c-58 0 -104 19 -139 58s-52 91 -52 154c0 79 28 150 84 213s125 95 208 95c115 0 186 -74 186 -189c0 -14 -2 -31 -5 -50zM302 436
c-73 0 -137 -51 -166 -126h278c0 84 -37 126 -112 126zM254 708c33 0 57 -25 57 -57s-24 -56 -57 -56c-31 0 -56 24 -56 56s25 57 56 57zM420 708c33 0 57 -25 57 -57s-24 -56 -57 -56c-31 0 -56 24 -56 56s25 57 56 57z" />
    <glyph glyph-name="igrave" unicode="&#xec;" horiz-adv-x="276" 
d="M30 0l98 504h85l-98 -504h-85zM75 704h121l48 -144h-68z" />
    <glyph glyph-name="iacute" unicode="&#xed;" horiz-adv-x="276" 
d="M30 0l98 504h85l-98 -504h-85zM197 560h-72l97 144h123z" />
    <glyph glyph-name="icircumflex" unicode="&#xee;" horiz-adv-x="276" 
d="M30 0l98 504h85l-98 -504h-85zM109 566h-98l179 164h31l124 -164h-89l-61 80z" />
    <glyph glyph-name="idieresis" unicode="&#xef;" horiz-adv-x="276" 
d="M30 0l98 504h85l-98 -504h-85zM110 708c33 0 57 -25 57 -57s-24 -56 -57 -56c-31 0 -56 24 -56 56s25 57 56 57zM276 708c33 0 57 -25 57 -57s-24 -56 -57 -56c-31 0 -56 24 -56 56s25 57 56 57z" />
    <glyph glyph-name="eth" unicode="&#xf0;" horiz-adv-x="575" 
d="M333 604l-53 -62l-51 42l51 60c-21 14 -45 27 -71 38l49 58c29 -13 53 -26 72 -39l48 54l49 -42l-43 -51c81 -61 126 -175 126 -292c0 -111 -25 -201 -74 -272s-123 -106 -221 -106c-59 0 -106 20 -139 61s-49 92 -49 154c0 84 25 156 76 215c51 60 118 90 201 90
c45 0 92 -17 111 -44c-10 57 -37 102 -82 136zM296 436c-55 0 -99 -23 -132 -69c-32 -46 -48 -99 -48 -159c0 -84 37 -140 114 -140c55 0 100 22 134 67s51 97 51 156c0 97 -40 145 -119 145z" />
    <glyph glyph-name="ntilde" unicode="&#xf1;" 
d="M496 355l-69 -355h-85l64 333c3 16 4 28 4 35c0 45 -22 68 -67 68c-36 0 -73 -21 -111 -63s-63 -96 -76 -162l-41 -211h-85l98 504h85l-18 -93c51 67 111 101 182 101c77 0 122 -41 122 -110c0 -16 -1 -32 -3 -47zM207 585l-41 42c36 49 76 73 121 73c24 0 46 -7 66 -20
c21 -13 39 -20 54 -20c25 0 50 12 73 35l41 -43c-36 -48 -76 -72 -121 -72c-24 0 -46 7 -67 20c-20 13 -38 20 -53 20c-25 0 -50 -12 -73 -35z" />
    <glyph glyph-name="ograve" unicode="&#xf2;" horiz-adv-x="573" 
d="M27 204c0 83 23 153 69 210c53 65 124 98 213 98c124 0 199 -79 199 -212c0 -83 -23 -153 -69 -210c-53 -65 -124 -98 -213 -98c-124 0 -199 79 -199 212zM301 436c-56 0 -103 -24 -140 -71c-30 -38 -45 -88 -45 -149c0 -93 41 -148 118 -148c56 0 103 24 140 71
c30 38 45 88 45 149c0 93 -41 148 -118 148zM224 704h121l48 -144h-68z" />
    <glyph glyph-name="oacute" unicode="&#xf3;" horiz-adv-x="573" 
d="M27 204c0 83 23 153 69 210c53 65 124 98 213 98c124 0 199 -79 199 -212c0 -83 -23 -153 -69 -210c-53 -65 -124 -98 -213 -98c-124 0 -199 79 -199 212zM301 436c-56 0 -103 -24 -140 -71c-30 -38 -45 -88 -45 -149c0 -93 41 -148 118 -148c56 0 103 24 140 71
c30 38 45 88 45 149c0 93 -41 148 -118 148zM332 560h-72l97 144h123z" />
    <glyph glyph-name="ocircumflex" unicode="&#xf4;" horiz-adv-x="573" 
d="M27 204c0 83 23 153 69 210c53 65 124 98 213 98c124 0 199 -79 199 -212c0 -83 -23 -153 -69 -210c-53 -65 -124 -98 -213 -98c-124 0 -199 79 -199 212zM301 436c-56 0 -103 -24 -140 -71c-30 -38 -45 -88 -45 -149c0 -93 41 -148 118 -148c56 0 103 24 140 71
c30 38 45 88 45 149c0 93 -41 148 -118 148zM247 566h-98l179 164h31l124 -164h-89l-61 80z" />
    <glyph glyph-name="otilde" unicode="&#xf5;" horiz-adv-x="573" 
d="M27 204c0 83 23 153 69 210c53 65 124 98 213 98c124 0 199 -79 199 -212c0 -83 -23 -153 -69 -210c-53 -65 -124 -98 -213 -98c-124 0 -199 79 -199 212zM301 436c-56 0 -103 -24 -140 -71c-30 -38 -45 -88 -45 -149c0 -93 41 -148 118 -148c56 0 103 24 140 71
c30 38 45 88 45 149c0 93 -41 148 -118 148zM200 585l-41 42c36 49 76 73 121 73c24 0 46 -7 66 -20c21 -13 39 -20 54 -20c25 0 50 12 73 35l41 -43c-36 -48 -76 -72 -121 -72c-24 0 -46 7 -67 20c-20 13 -38 20 -53 20c-25 0 -50 -12 -73 -35z" />
    <glyph glyph-name="odieresis" unicode="&#xf6;" horiz-adv-x="573" 
d="M27 204c0 83 23 153 69 210c53 65 124 98 213 98c124 0 199 -79 199 -212c0 -83 -23 -153 -69 -210c-53 -65 -124 -98 -213 -98c-124 0 -199 79 -199 212zM301 436c-56 0 -103 -24 -140 -71c-30 -38 -45 -88 -45 -149c0 -93 41 -148 118 -148c56 0 103 24 140 71
c30 38 45 88 45 149c0 93 -41 148 -118 148zM263 708c33 0 57 -25 57 -57s-24 -56 -57 -56c-31 0 -56 24 -56 56s25 57 56 57zM429 708c33 0 57 -25 57 -57s-24 -56 -57 -56c-31 0 -56 24 -56 56s25 57 56 57z" />
    <glyph glyph-name="divide" unicode="&#xf7;" horiz-adv-x="576" 
d="M227 128c0 35 27 63 63 63c35 0 63 -28 63 -63c0 -36 -28 -63 -63 -63c-36 0 -63 27 -63 63zM227 502c0 35 27 63 63 63c35 0 63 -28 63 -63c0 -36 -28 -63 -63 -63c-36 0 -63 27 -63 63zM510 280h-440v74h440v-74z" />
    <glyph glyph-name="oslash" unicode="&#xf8;" horiz-adv-x="573" 
d="M27 204c0 83 23 153 69 210c53 65 124 98 213 98c51 0 93 -13 127 -39l74 76l51 -48l-80 -82c18 -32 27 -72 27 -119c0 -83 -23 -153 -68 -210c-53 -65 -124 -98 -214 -98c-51 0 -92 13 -125 39l-74 -76l-51 48l79 81c-19 33 -28 73 -28 120zM301 436
c-56 0 -103 -24 -140 -71c-30 -38 -45 -88 -45 -149c0 -31 2 -52 6 -64l254 259c-19 17 -44 25 -75 25zM419 288c0 27 -2 47 -6 62l-253 -259c19 -15 44 -23 74 -23c56 0 103 24 140 71c30 38 45 88 45 149z" />
    <glyph glyph-name="ugrave" unicode="&#xf9;" 
d="M55 149l69 355h85l-64 -333c-3 -16 -4 -28 -4 -35c0 -45 22 -68 67 -68c36 0 73 21 111 63s63 96 76 162l41 211h85l-98 -504h-85l18 93c-51 -67 -111 -101 -182 -101c-77 0 -122 41 -122 110c0 16 1 32 3 47zM236 704h121l48 -144h-68z" />
    <glyph glyph-name="uacute" unicode="&#xfa;" 
d="M55 149l69 355h85l-64 -333c-3 -16 -4 -28 -4 -35c0 -45 22 -68 67 -68c36 0 73 21 111 63s63 96 76 162l41 211h85l-98 -504h-85l18 93c-51 -67 -111 -101 -182 -101c-77 0 -122 41 -122 110c0 16 1 32 3 47zM327 560h-72l97 144h123z" />
    <glyph glyph-name="ucircumflex" unicode="&#xfb;" 
d="M55 149l69 355h85l-64 -333c-3 -16 -4 -28 -4 -35c0 -45 22 -68 67 -68c36 0 73 21 111 63s63 96 76 162l41 211h85l-98 -504h-85l18 93c-51 -67 -111 -101 -182 -101c-77 0 -122 41 -122 110c0 16 1 32 3 47zM273 566h-98l179 164h31l124 -164h-89l-61 80z" />
    <glyph glyph-name="udieresis" unicode="&#xfc;" 
d="M55 149l69 355h85l-64 -333c-3 -16 -4 -28 -4 -35c0 -45 22 -68 67 -68c36 0 73 21 111 63s63 96 76 162l41 211h85l-98 -504h-85l18 93c-51 -67 -111 -101 -182 -101c-77 0 -122 41 -122 110c0 16 1 32 3 47zM258 708c33 0 57 -25 57 -57s-24 -56 -57 -56
c-31 0 -56 24 -56 56s25 57 56 57zM424 708c33 0 57 -25 57 -57s-24 -56 -57 -56c-31 0 -56 24 -56 56s25 57 56 57z" />
    <glyph glyph-name="yacute" unicode="&#xfd;" horiz-adv-x="472" 
d="M188 140l194 364h89l-385 -708h-89l125 236l-81 472h89zM259 560h-72l97 144h123z" />
    <glyph glyph-name="thorn" unicode="&#xfe;" horiz-adv-x="594" 
d="M529 300c0 -87 -23 -160 -70 -219s-114 -89 -201 -89c-27 0 -54 7 -81 21c-26 15 -43 31 -51 49l-52 -266h-84l176 912h85l-51 -264c32 37 90 68 150 68c109 0 179 -72 179 -212zM265 68c55 0 97 22 128 66s47 95 47 154c0 99 -38 148 -113 148c-50 0 -92 -23 -126 -69
s-51 -98 -51 -156c0 -92 46 -143 115 -143z" />
    <glyph glyph-name="ydieresis" unicode="&#xff;" horiz-adv-x="466" 
d="M188 140l194 364h89l-385 -708h-89l125 236l-81 472h89zM189 708c33 0 57 -25 57 -57s-24 -56 -57 -56c-31 0 -56 24 -56 56s25 57 56 57zM355 708c33 0 57 -25 57 -57s-24 -56 -57 -56c-31 0 -56 24 -56 56s25 57 56 57z" />
    <glyph glyph-name="Amacron" unicode="&#x100;" horiz-adv-x="574" 
d="M495 768h-249l15 76h249zM-57 0l372 700h85l106 -700h-89l-25 187h-261l-99 -187h-89zM380 271l-45 315l-160 -315h205z" />
    <glyph glyph-name="amacron" unicode="&#x101;" horiz-adv-x="586" 
d="M436 572h-249l15 76h249zM530 504l-97 -504h-85l12 62c-42 -47 -92 -70 -149 -70c-121 0 -184 84 -184 205c0 88 24 162 72 223s115 92 201 92c65 0 121 -35 134 -68l11 60h85zM235 68c38 0 71 13 98 38c56 52 76 125 76 198c0 81 -41 132 -116 132
c-57 0 -100 -22 -131 -66s-46 -94 -46 -150c0 -93 44 -152 119 -152z" />
    <glyph glyph-name="Abreve" unicode="&#x102;" horiz-adv-x="574" 
d="M436 877h67c-17 -69 -67 -109 -132 -109c-53 0 -92 35 -92 87c0 5 1 13 2 22h67c-1 -3 -1 -6 -1 -10c0 -21 15 -35 36 -35c29 0 47 15 53 45zM-57 0l372 700h85l106 -700h-89l-25 187h-261l-99 -187h-89zM380 271l-45 315l-160 -315h205z" />
    <glyph glyph-name="abreve" unicode="&#x103;" horiz-adv-x="586" 
d="M377 681h67c-17 -69 -67 -109 -132 -109c-53 0 -92 35 -92 87c0 5 1 13 2 22h67c-1 -3 -1 -6 -1 -10c0 -21 15 -35 36 -35c29 0 47 15 53 45zM530 504l-97 -504h-85l12 62c-42 -47 -92 -70 -149 -70c-121 0 -184 84 -184 205c0 88 24 162 72 223s115 92 201 92
c65 0 121 -35 134 -68l11 60h85zM235 68c38 0 71 13 98 38c56 52 76 125 76 198c0 81 -41 132 -116 132c-57 0 -100 -22 -131 -66s-46 -94 -46 -150c0 -93 44 -152 119 -152z" />
    <glyph glyph-name="Aogonek" unicode="&#x104;" horiz-adv-x="574" 
d="M193 6h62c-49 -33 -73 -62 -73 -85c0 -17 8 -25 25 -25c21 0 35 10 63 41l36 -35c-41 -51 -75 -71 -122 -71c-43 0 -71 26 -71 67c0 38 27 74 80 108zM-57 0l372 700h85l106 -700h-89l-25 187h-261l-99 -187h-89zM380 271l-45 315l-160 -315h205z" />
    <glyph glyph-name="aogonek" unicode="&#x105;" horiz-adv-x="586" 
d="M179 -2h62c-49 -33 -73 -62 -73 -85c0 -17 8 -25 25 -25c21 0 35 10 63 41l36 -35c-41 -51 -75 -71 -122 -71c-43 0 -71 26 -71 67c0 38 27 74 80 108zM530 504l-97 -504h-85l12 62c-42 -47 -92 -70 -149 -70c-121 0 -184 84 -184 205c0 88 24 162 72 223s115 92 201 92
c65 0 121 -35 134 -68l11 60h85zM235 68c38 0 71 13 98 38c56 52 76 125 76 198c0 81 -41 132 -116 132c-57 0 -100 -22 -131 -66s-46 -94 -46 -150c0 -93 44 -152 119 -152z" />
    <glyph glyph-name="Cacute" unicode="&#x106;" horiz-adv-x="662" 
d="M475 768h-72l97 144h123zM517 229l78 -25c-65 -141 -165 -212 -302 -212c-76 0 -137 24 -184 73s-70 118 -70 207c0 75 15 146 45 211s75 119 135 161c60 43 129 64 208 64c66 0 119 -21 160 -62s63 -91 67 -150l-85 -23c-16 101 -69 151 -158 151
c-59 0 -110 -17 -154 -52c-87 -68 -126 -174 -126 -290c0 -133 60 -206 173 -206c92 0 156 45 213 153z" />
    <glyph glyph-name="cacute" unicode="&#x107;" horiz-adv-x="540" 
d="M362 572h-72l97 144h123zM380 170l71 -37c-35 -53 -70 -90 -105 -111c-35 -20 -79 -30 -132 -30c-57 0 -102 19 -136 58s-51 90 -51 153c0 81 26 153 77 215c52 63 122 94 210 94c97 0 158 -47 181 -140l-76 -29c-17 62 -57 93 -120 93c-54 0 -98 -22 -132 -67
c-34 -44 -51 -96 -51 -157c0 -89 44 -144 113 -144c65 0 108 31 151 102z" />
    <glyph glyph-name="Ccircumflex" unicode="&#x108;" horiz-adv-x="662" 
d="M370 768h-98l179 164h31l124 -164h-89l-61 80zM517 229l78 -25c-65 -141 -165 -212 -302 -212c-76 0 -137 24 -184 73s-70 118 -70 207c0 75 15 146 45 211s75 119 135 161c60 43 129 64 208 64c66 0 119 -21 160 -62s63 -91 67 -150l-85 -23c-16 101 -69 151 -158 151
c-59 0 -110 -17 -154 -52c-87 -68 -126 -174 -126 -290c0 -133 60 -206 173 -206c92 0 156 45 213 153z" />
    <glyph glyph-name="ccircumflex" unicode="&#x109;" horiz-adv-x="540" 
d="M257 572h-98l179 164h31l124 -164h-89l-61 80zM380 170l71 -37c-35 -53 -70 -90 -105 -111c-35 -20 -79 -30 -132 -30c-57 0 -102 19 -136 58s-51 90 -51 153c0 81 26 153 77 215c52 63 122 94 210 94c97 0 158 -47 181 -140l-76 -29c-17 62 -57 93 -120 93
c-54 0 -98 -22 -132 -67c-34 -44 -51 -96 -51 -157c0 -89 44 -144 113 -144c65 0 108 31 151 102z" />
    <glyph glyph-name="Cdotaccent" unicode="&#x10a;" horiz-adv-x="662" 
d="M388 830c0 36 28 64 63 64c36 0 63 -28 63 -64c0 -35 -27 -62 -63 -62c-35 0 -63 27 -63 62zM517 229l78 -25c-65 -141 -165 -212 -302 -212c-76 0 -137 24 -184 73s-70 118 -70 207c0 75 15 146 45 211s75 119 135 161c60 43 129 64 208 64c66 0 119 -21 160 -62
s63 -91 67 -150l-85 -23c-16 101 -69 151 -158 151c-59 0 -110 -17 -154 -52c-87 -68 -126 -174 -126 -290c0 -133 60 -206 173 -206c92 0 156 45 213 153z" />
    <glyph glyph-name="cdotaccent" unicode="&#x10b;" horiz-adv-x="540" 
d="M275 634c0 36 28 64 63 64c36 0 63 -28 63 -64c0 -35 -27 -62 -63 -62c-35 0 -63 27 -63 62zM380 170l71 -37c-35 -53 -70 -90 -105 -111c-35 -20 -79 -30 -132 -30c-57 0 -102 19 -136 58s-51 90 -51 153c0 81 26 153 77 215c52 63 122 94 210 94c97 0 158 -47 181 -140
l-76 -29c-17 62 -57 93 -120 93c-54 0 -98 -22 -132 -67c-34 -44 -51 -96 -51 -157c0 -89 44 -144 113 -144c65 0 108 31 151 102z" />
    <glyph glyph-name="Ccaron" unicode="&#x10c;" horiz-adv-x="662" 
d="M540 932h98l-179 -164h-31l-124 164h89l61 -80zM517 229l78 -25c-65 -141 -165 -212 -302 -212c-76 0 -137 24 -184 73s-70 118 -70 207c0 75 15 146 45 211s75 119 135 161c60 43 129 64 208 64c66 0 119 -21 160 -62s63 -91 67 -150l-85 -23c-16 101 -69 151 -158 151
c-59 0 -110 -17 -154 -52c-87 -68 -126 -174 -126 -290c0 -133 60 -206 173 -206c92 0 156 45 213 153z" />
    <glyph glyph-name="ccaron" unicode="&#x10d;" horiz-adv-x="540" 
d="M427 736h98l-179 -164h-31l-124 164h89l61 -80zM380 170l71 -37c-35 -53 -70 -90 -105 -111c-35 -20 -79 -30 -132 -30c-57 0 -102 19 -136 58s-51 90 -51 153c0 81 26 153 77 215c52 63 122 94 210 94c97 0 158 -47 181 -140l-76 -29c-17 62 -57 93 -120 93
c-54 0 -98 -22 -132 -67c-34 -44 -51 -96 -51 -157c0 -89 44 -144 113 -144c65 0 108 31 151 102z" />
    <glyph glyph-name="Dcaron" unicode="&#x10e;" horiz-adv-x="669" 
d="M541 932h98l-179 -164h-31l-124 164h89l61 -80zM35 0l137 700h180c168 0 276 -98 276 -279c0 -119 -37 -219 -112 -300c-74 -81 -170 -121 -287 -121h-194zM333 616h-89l-103 -532h89c92 0 165 31 220 93c55 63 83 141 83 235c0 136 -71 204 -200 204z" />
    <glyph glyph-name="dcaron" unicode="&#x10f;" horiz-adv-x="612" 
d="M688 491h-63l102 217h117zM302 512c63 0 116 -28 139 -68l51 264h85l-138 -708h-85l13 62c-43 -47 -96 -70 -158 -70c-116 0 -182 75 -182 194c0 89 25 166 75 230s117 96 200 96zM116 208c0 -85 41 -140 116 -140c39 0 73 13 102 39c59 53 82 127 82 199
c0 85 -48 130 -121 130c-38 0 -71 -12 -100 -37c-56 -49 -79 -120 -79 -191z" />
    <glyph glyph-name="Dcroat" unicode="&#x110;" horiz-adv-x="669" 
d="M95 308h-58l17 84h57l61 308h180c168 0 276 -98 276 -279c0 -119 -37 -219 -112 -300c-74 -81 -170 -121 -287 -121h-194zM333 616h-89l-44 -224h130l-17 -84h-129l-43 -224h89c92 0 165 31 220 93c55 63 83 141 83 235c0 136 -71 204 -200 204z" />
    <glyph glyph-name="Emacron" unicode="&#x112;" horiz-adv-x="563" 
d="M508 768h-249l15 76h249zM35 0l137 700h396l-17 -84h-307l-39 -201h250l-16 -84h-250l-48 -247h317l-17 -84h-406z" />
    <glyph glyph-name="emacron" unicode="&#x113;" horiz-adv-x="562" 
d="M453 572h-249l15 76h249zM498 273l-8 -39h-373c-2 -13 -3 -25 -3 -36c0 -80 41 -130 117 -130c71 0 114 32 157 99l72 -35c-67 -99 -137 -140 -244 -140c-58 0 -104 19 -139 58s-52 91 -52 154c0 79 28 150 84 213s125 95 208 95c115 0 186 -74 186 -189
c0 -14 -2 -31 -5 -50zM302 436c-73 0 -137 -51 -166 -126h278c0 84 -37 126 -112 126z" />
    <glyph glyph-name="Ebreve" unicode="&#x114;" horiz-adv-x="563" 
d="M449 877h67c-17 -69 -67 -109 -132 -109c-53 0 -92 35 -92 87c0 5 1 13 2 22h67c-1 -3 -1 -6 -1 -10c0 -21 15 -35 36 -35c29 0 47 15 53 45zM35 0l137 700h396l-17 -84h-307l-39 -201h250l-16 -84h-250l-48 -247h317l-17 -84h-406z" />
    <glyph glyph-name="ebreve" unicode="&#x115;" horiz-adv-x="562" 
d="M394 681h67c-17 -69 -67 -109 -132 -109c-53 0 -92 35 -92 87c0 5 1 13 2 22h67c-1 -3 -1 -6 -1 -10c0 -21 15 -35 36 -35c29 0 47 15 53 45zM498 273l-8 -39h-373c-2 -13 -3 -25 -3 -36c0 -80 41 -130 117 -130c71 0 114 32 157 99l72 -35c-67 -99 -137 -140 -244 -140
c-58 0 -104 19 -139 58s-52 91 -52 154c0 79 28 150 84 213s125 95 208 95c115 0 186 -74 186 -189c0 -14 -2 -31 -5 -50zM302 436c-73 0 -137 -51 -166 -126h278c0 84 -37 126 -112 126z" />
    <glyph glyph-name="Edotaccent" unicode="&#x116;" horiz-adv-x="563" 
d="M333 830c0 36 28 64 63 64c36 0 63 -28 63 -64c0 -35 -27 -62 -63 -62c-35 0 -63 27 -63 62zM35 0l137 700h396l-17 -84h-307l-39 -201h250l-16 -84h-250l-48 -247h317l-17 -84h-406z" />
    <glyph glyph-name="edotaccent" unicode="&#x117;" horiz-adv-x="562" 
d="M278 634c0 36 28 64 63 64c36 0 63 -28 63 -64c0 -35 -27 -62 -63 -62c-35 0 -63 27 -63 62zM498 273l-8 -39h-373c-2 -13 -3 -25 -3 -36c0 -80 41 -130 117 -130c71 0 114 32 157 99l72 -35c-67 -99 -137 -140 -244 -140c-58 0 -104 19 -139 58s-52 91 -52 154
c0 79 28 150 84 213s125 95 208 95c115 0 186 -74 186 -189c0 -14 -2 -31 -5 -50zM302 436c-73 0 -137 -51 -166 -126h278c0 84 -37 126 -112 126z" />
    <glyph glyph-name="Eogonek" unicode="&#x118;" horiz-adv-x="563" 
d="M206 6h62c-49 -33 -73 -62 -73 -85c0 -17 8 -25 25 -25c21 0 35 10 63 41l36 -35c-41 -51 -75 -71 -122 -71c-43 0 -71 26 -71 67c0 38 27 74 80 108zM35 0l137 700h396l-17 -84h-307l-39 -201h250l-16 -84h-250l-48 -247h317l-17 -84h-406z" />
    <glyph glyph-name="eogonek" unicode="&#x119;" horiz-adv-x="562" 
d="M153 -2h62c-49 -33 -73 -62 -73 -85c0 -17 8 -25 25 -25c21 0 35 10 63 41l36 -35c-41 -51 -75 -71 -122 -71c-43 0 -71 26 -71 67c0 38 27 74 80 108zM498 273l-8 -39h-373c-2 -13 -3 -25 -3 -36c0 -80 41 -130 117 -130c71 0 114 32 157 99l72 -35
c-67 -99 -137 -140 -244 -140c-58 0 -104 19 -139 58s-52 91 -52 154c0 79 28 150 84 213s125 95 208 95c115 0 186 -74 186 -189c0 -14 -2 -31 -5 -50zM302 436c-73 0 -137 -51 -166 -126h278c0 84 -37 126 -112 126z" />
    <glyph glyph-name="Ecaron" unicode="&#x11a;" horiz-adv-x="563" 
d="M485 932h98l-179 -164h-31l-124 164h89l61 -80zM35 0l137 700h396l-17 -84h-307l-39 -201h250l-16 -84h-250l-48 -247h317l-17 -84h-406z" />
    <glyph glyph-name="ecaron" unicode="&#x11b;" horiz-adv-x="562" 
d="M430 736h98l-179 -164h-31l-124 164h89l61 -80zM498 273l-8 -39h-373c-2 -13 -3 -25 -3 -36c0 -80 41 -130 117 -130c71 0 114 32 157 99l72 -35c-67 -99 -137 -140 -244 -140c-58 0 -104 19 -139 58s-52 91 -52 154c0 79 28 150 84 213s125 95 208 95
c115 0 186 -74 186 -189c0 -14 -2 -31 -5 -50zM302 436c-73 0 -137 -51 -166 -126h278c0 84 -37 126 -112 126z" />
    <glyph glyph-name="Gcircumflex" unicode="&#x11c;" horiz-adv-x="698" 
d="M369 768h-98l179 164h31l124 -164h-89l-61 80zM527 269h-144l16 84h236l-69 -353h-76l9 96c-56 -73 -118 -104 -213 -104c-69 0 -127 24 -175 73s-72 120 -72 212c0 76 15 146 44 211c30 65 75 117 135 158s129 62 208 62c67 0 121 -20 162 -59c42 -39 65 -90 68 -152
l-88 -23c-13 100 -66 150 -158 150c-82 0 -149 -33 -201 -99s-78 -144 -78 -235c0 -139 61 -214 172 -214c109 0 191 74 224 193z" />
    <glyph glyph-name="gcircumflex" unicode="&#x11d;" horiz-adv-x="510" 
d="M417 597h-98l179 164h31l124 -164h-89l-61 80zM84 311c0 59 19 107 56 144c38 38 88 57 149 57c33 0 64 -8 91 -23l94 48l30 -66l-75 -38c7 -17 11 -38 11 -64c0 -57 -20 -103 -59 -140s-88 -55 -147 -55c-29 0 -56 7 -81 20c-31 -12 -47 -30 -47 -55
c0 -21 17 -38 45 -38h115c94 0 141 -40 141 -121c0 -63 -24 -110 -73 -143c-48 -33 -107 -49 -177 -49c-52 0 -95 13 -129 40c-34 26 -51 61 -51 104c0 49 22 92 66 127c-14 15 -21 36 -21 63c0 47 28 84 84 113c-15 22 -22 47 -22 76zM241 29h-97c-11 0 -23 1 -36 2
c-31 -16 -46 -43 -46 -81c0 -52 34 -90 110 -90c39 0 73 8 102 25s44 43 44 80c0 43 -26 64 -77 64zM279 440c-63 0 -111 -47 -111 -114c0 -52 30 -80 77 -80c63 0 111 44 111 111c0 55 -30 83 -77 83z" />
    <glyph glyph-name="Gbreve" unicode="&#x11e;" horiz-adv-x="698" 
d="M503 877h67c-17 -69 -67 -109 -132 -109c-53 0 -92 35 -92 87c0 5 1 13 2 22h67c-1 -3 -1 -6 -1 -10c0 -21 15 -35 36 -35c29 0 47 15 53 45zM527 269h-144l16 84h236l-69 -353h-76l9 96c-56 -73 -118 -104 -213 -104c-69 0 -127 24 -175 73s-72 120 -72 212
c0 76 15 146 44 211c30 65 75 117 135 158s129 62 208 62c67 0 121 -20 162 -59c42 -39 65 -90 68 -152l-88 -23c-13 100 -66 150 -158 150c-82 0 -149 -33 -201 -99s-78 -144 -78 -235c0 -139 61 -214 172 -214c109 0 191 74 224 193z" />
    <glyph glyph-name="gbreve" unicode="&#x11f;" horiz-adv-x="510" 
d="M551 706h67c-17 -69 -67 -109 -132 -109c-53 0 -92 35 -92 87c0 5 1 13 2 22h67c-1 -3 -1 -6 -1 -10c0 -21 15 -35 36 -35c29 0 47 15 53 45zM84 311c0 59 19 107 56 144c38 38 88 57 149 57c33 0 64 -8 91 -23l94 48l30 -66l-75 -38c7 -17 11 -38 11 -64
c0 -57 -20 -103 -59 -140s-88 -55 -147 -55c-29 0 -56 7 -81 20c-31 -12 -47 -30 -47 -55c0 -21 17 -38 45 -38h115c94 0 141 -40 141 -121c0 -63 -24 -110 -73 -143c-48 -33 -107 -49 -177 -49c-52 0 -95 13 -129 40c-34 26 -51 61 -51 104c0 49 22 92 66 127
c-14 15 -21 36 -21 63c0 47 28 84 84 113c-15 22 -22 47 -22 76zM241 29h-97c-11 0 -23 1 -36 2c-31 -16 -46 -43 -46 -81c0 -52 34 -90 110 -90c39 0 73 8 102 25s44 43 44 80c0 43 -26 64 -77 64zM279 440c-63 0 -111 -47 -111 -114c0 -52 30 -80 77 -80
c63 0 111 44 111 111c0 55 -30 83 -77 83z" />
    <glyph glyph-name="Gdotaccent" unicode="&#x120;" horiz-adv-x="698" 
d="M387 830c0 36 28 64 63 64c36 0 63 -28 63 -64c0 -35 -27 -62 -63 -62c-35 0 -63 27 -63 62zM527 269h-144l16 84h236l-69 -353h-76l9 96c-56 -73 -118 -104 -213 -104c-69 0 -127 24 -175 73s-72 120 -72 212c0 76 15 146 44 211c30 65 75 117 135 158s129 62 208 62
c67 0 121 -20 162 -59c42 -39 65 -90 68 -152l-88 -23c-13 100 -66 150 -158 150c-82 0 -149 -33 -201 -99s-78 -144 -78 -235c0 -139 61 -214 172 -214c109 0 191 74 224 193z" />
    <glyph glyph-name="gdotaccent" unicode="&#x121;" horiz-adv-x="510" 
d="M435 659c0 36 28 64 63 64c36 0 63 -28 63 -64c0 -35 -27 -62 -63 -62c-35 0 -63 27 -63 62zM84 311c0 59 19 107 56 144c38 38 88 57 149 57c33 0 64 -8 91 -23l94 48l30 -66l-75 -38c7 -17 11 -38 11 -64c0 -57 -20 -103 -59 -140s-88 -55 -147 -55c-29 0 -56 7 -81 20
c-31 -12 -47 -30 -47 -55c0 -21 17 -38 45 -38h115c94 0 141 -40 141 -121c0 -63 -24 -110 -73 -143c-48 -33 -107 -49 -177 -49c-52 0 -95 13 -129 40c-34 26 -51 61 -51 104c0 49 22 92 66 127c-14 15 -21 36 -21 63c0 47 28 84 84 113c-15 22 -22 47 -22 76zM241 29h-97
c-11 0 -23 1 -36 2c-31 -16 -46 -43 -46 -81c0 -52 34 -90 110 -90c39 0 73 8 102 25s44 43 44 80c0 43 -26 64 -77 64zM279 440c-63 0 -111 -47 -111 -114c0 -52 30 -80 77 -80c63 0 111 44 111 111c0 55 -30 83 -77 83z" />
    <glyph glyph-name="Gcommaaccent" unicode="&#x122;" horiz-adv-x="698" 
d="M207 -285h-63l102 217h117zM527 269h-144l16 84h236l-69 -353h-76l9 96c-56 -73 -118 -104 -213 -104c-69 0 -127 24 -175 73s-72 120 -72 212c0 76 15 146 44 211c30 65 75 117 135 158s129 62 208 62c67 0 121 -20 162 -59c42 -39 65 -90 68 -152l-88 -23
c-13 100 -66 150 -158 150c-82 0 -149 -33 -201 -99s-78 -144 -78 -235c0 -139 61 -214 172 -214c109 0 191 74 224 193z" />
    <glyph glyph-name="Hcircumflex" unicode="&#x124;" horiz-adv-x="695" 
d="M361 768h-98l179 164h31l124 -164h-89l-61 80zM515 414l56 286h89l-137 -700h-89l65 330h-310l-65 -330h-89l137 700h89l-56 -286h310z" />
    <glyph glyph-name="hcircumflex" unicode="&#x125;" horiz-adv-x="584" 
d="M313 768h-98l179 164h31l124 -164h-89l-61 80zM502 350l-68 -350h-85l64 333c2 12 3 24 3 36c0 45 -23 67 -69 67c-38 0 -76 -21 -115 -62c-38 -41 -63 -94 -76 -160l-41 -214h-85l137 708h85l-58 -298c49 68 113 102 190 102c75 0 123 -40 123 -112c0 -15 -2 -31 -5 -50
z" />
    <glyph glyph-name="Itilde" unicode="&#x128;" horiz-adv-x="296" 
d="M105 773l-41 42c36 49 76 73 121 73c24 0 46 -7 66 -20c21 -13 39 -20 54 -20c25 0 50 12 73 35l41 -43c-36 -48 -76 -72 -121 -72c-24 0 -46 7 -67 20c-20 13 -38 20 -53 20c-25 0 -50 -12 -73 -35zM35 0l137 700h89l-137 -700h-89z" />
    <glyph glyph-name="itilde" unicode="&#x129;" horiz-adv-x="276" 
d="M59 577l-41 42c36 49 76 73 121 73c24 0 46 -7 66 -20c21 -13 39 -20 54 -20c25 0 50 12 73 35l41 -43c-36 -48 -76 -72 -121 -72c-24 0 -46 7 -67 20c-20 13 -38 20 -53 20c-25 0 -50 -12 -73 -35zM30 0l98 504h85l-98 -504h-85z" />
    <glyph glyph-name="Imacron" unicode="&#x12a;" horiz-adv-x="296" 
d="M354 768h-249l15 76h249zM35 0l137 700h89l-137 -700h-89z" />
    <glyph glyph-name="imacron" unicode="&#x12b;" horiz-adv-x="276" 
d="M308 572h-249l15 76h249zM30 0l98 504h85l-98 -504h-85z" />
    <glyph glyph-name="Ibreve" unicode="&#x12c;" horiz-adv-x="296" 
d="M295 877h67c-17 -69 -67 -109 -132 -109c-53 0 -92 35 -92 87c0 5 1 13 2 22h67c-1 -3 -1 -6 -1 -10c0 -21 15 -35 36 -35c29 0 47 15 53 45zM35 0l137 700h89l-137 -700h-89z" />
    <glyph glyph-name="ibreve" unicode="&#x12d;" horiz-adv-x="276" 
d="M249 681h67c-17 -69 -67 -109 -132 -109c-53 0 -92 35 -92 87c0 5 1 13 2 22h67c-1 -3 -1 -6 -1 -10c0 -21 15 -35 36 -35c29 0 47 15 53 45zM30 0l98 504h85l-98 -504h-85z" />
    <glyph glyph-name="Iogonek" unicode="&#x12e;" horiz-adv-x="296" 
d="M17 6h62c-49 -33 -73 -62 -73 -85c0 -17 8 -25 25 -25c21 0 35 10 63 41l36 -35c-41 -51 -75 -71 -122 -71c-43 0 -71 26 -71 67c0 38 27 74 80 108zM35 0l137 700h89l-137 -700h-89z" />
    <glyph glyph-name="iogonek" unicode="&#x12f;" horiz-adv-x="276" 
d="M10 6h62c-49 -33 -73 -62 -73 -85c0 -17 8 -25 25 -25c21 0 35 10 63 41l36 -35c-41 -51 -75 -71 -122 -71c-43 0 -71 26 -71 67c0 38 27 74 80 108zM30 0l98 504h85l-98 -504h-85zM132 644c0 36 27 64 63 64s63 -28 63 -64c0 -35 -27 -62 -63 -62s-63 27 -63 62z" />
    <glyph glyph-name="Idot" unicode="&#x130;" horiz-adv-x="296" 
d="M179 830c0 36 28 64 63 64c36 0 63 -28 63 -64c0 -35 -27 -62 -63 -62c-35 0 -63 27 -63 62zM35 0l137 700h89l-137 -700h-89z" />
    <glyph glyph-name="dotlessi" unicode="&#x131;" horiz-adv-x="276" 
d="M30 0l98 504h85l-98 -504h-85z" />
    <glyph glyph-name="IJ" unicode="&#x132;" horiz-adv-x="837" 
d="M625 219l93 481h89l-100 -515c-24 -127 -109 -193 -228 -193c-53 0 -96 18 -129 55s-49 79 -49 128l89 19c0 -79 33 -118 99 -118c72 0 117 48 136 143zM35 0l137 700h89l-137 -700h-89z" />
    <glyph glyph-name="ij" unicode="&#x133;" horiz-adv-x="552" 
d="M196 -212l-8 82c68 17 102 41 115 112l101 522h85l-103 -530c-23 -117 -78 -169 -190 -186zM408 644c0 36 27 64 63 64s63 -28 63 -64c0 -35 -27 -62 -63 -62s-63 27 -63 62zM30 0l98 504h85l-98 -504h-85zM132 644c0 36 27 64 63 64s63 -28 63 -64
c0 -35 -27 -62 -63 -62s-63 27 -63 62z" />
    <glyph glyph-name="Jcircumflex" unicode="&#x134;" horiz-adv-x="541" 
d="M411 768h-98l179 164h31l124 -164h-89l-61 80zM329 219l93 481h89l-100 -515c-24 -127 -109 -193 -228 -193c-53 0 -96 18 -129 55s-49 79 -49 128l89 19c0 -79 33 -118 99 -118c72 0 117 48 136 143z" />
    <glyph glyph-name="jcircumflex" unicode="&#x135;" horiz-adv-x="276" 
d="M138 768h-98l179 164h31l124 -164h-89l-61 80zM-80 -212l-8 82c68 17 102 41 115 112l101 522h85l-103 -530c-23 -117 -78 -169 -190 -186zM132 644c0 36 27 64 63 64s63 -28 63 -64c0 -35 -27 -62 -63 -62s-63 27 -63 62z" />
    <glyph glyph-name="Kcommaaccent" unicode="&#x136;" horiz-adv-x="597" 
d="M192 -277h-63l102 217h117zM283 382l224 -382h-108l-206 353l-69 -353h-89l137 700h89l-55 -281l298 281h120z" />
    <glyph glyph-name="kcommaaccent" unicode="&#x137;" horiz-adv-x="508" 
d="M148 -277h-63l102 217h117zM30 0l137 708h85l-80 -415l216 211h115l-249 -236l171 -268h-103l-158 253l-49 -253h-85z" />
    <glyph glyph-name="Lacute" unicode="&#x139;" horiz-adv-x="506" 
d="M420 768h-72l97 144h123zM35 0l137 700h89l-120 -616h308l-17 -84h-397z" />
    <glyph glyph-name="lacute" unicode="&#x13a;" horiz-adv-x="306" 
d="M276 768h-72l97 144h123zM49 0l137 708h85l-137 -708h-85z" />
    <glyph glyph-name="Lcommaaccent" unicode="&#x13b;" horiz-adv-x="506" 
d="M154 -277h-63l102 217h117zM35 0l137 700h89l-120 -616h308l-17 -84h-397z" />
    <glyph glyph-name="lcommaaccent" unicode="&#x13c;" horiz-adv-x="306" 
d="M12 -277h-63l102 217h117zM49 0l137 708h85l-137 -708h-85z" />
    <glyph glyph-name="Lcaron" unicode="&#x13d;" horiz-adv-x="506" 
d="M680 491h-63l102 217h117zM35 0l137 700h89l-120 -616h308l-17 -84h-397z" />
    <glyph glyph-name="lcaron" unicode="&#x13e;" horiz-adv-x="306" 
d="M382 491h-63l102 217h117zM49 0l137 708h85l-137 -708h-85z" />
    <glyph glyph-name="Ldot" unicode="&#x13f;" horiz-adv-x="506" 
d="M239 354c0 35 27 63 63 63c35 0 63 -28 63 -63c0 -36 -28 -63 -63 -63c-36 0 -63 27 -63 63zM35 0l137 700h89l-120 -616h308l-17 -84h-397z" />
    <glyph glyph-name="ldot" unicode="&#x140;" horiz-adv-x="581" 
d="M386 349c0 35 27 63 63 63c35 0 63 -28 63 -63c0 -36 -28 -63 -63 -63c-36 0 -63 27 -63 63zM49 0l137 708h85l-137 -708h-85z" />
    <glyph glyph-name="Lslash" unicode="&#x141;" horiz-adv-x="506" 
d="M103 349l69 351h89l-59 -302l129 65l24 -65l-170 -85l-44 -229h308l-17 -84h-397l52 264l-72 -36l-23 65z" />
    <glyph glyph-name="lslash" unicode="&#x142;" horiz-adv-x="324" 
d="M130 380l63 328h85l-55 -282l74 37l23 -65l-113 -56l-66 -342h-85l57 295l-73 -36l-22 65z" />
    <glyph glyph-name="Nacute" unicode="&#x143;" horiz-adv-x="706" 
d="M471 768h-72l97 144h123zM475 153l107 547h89l-137 -700h-99l-205 545l-106 -545h-89l137 700h99z" />
    <glyph glyph-name="nacute" unicode="&#x144;" 
d="M376 572h-72l97 144h123zM496 355l-69 -355h-85l64 333c3 16 4 28 4 35c0 45 -22 68 -67 68c-36 0 -73 -21 -111 -63s-63 -96 -76 -162l-41 -211h-85l98 504h85l-18 -93c51 67 111 101 182 101c77 0 122 -41 122 -110c0 -16 -1 -32 -3 -47z" />
    <glyph glyph-name="Ncommaaccent" unicode="&#x145;" horiz-adv-x="706" 
d="M205 -277h-63l102 217h117zM475 153l107 547h89l-137 -700h-99l-205 545l-106 -545h-89l137 700h99z" />
    <glyph glyph-name="ncommaaccent" unicode="&#x146;" 
d="M149 -277h-63l102 217h117zM496 355l-69 -355h-85l64 333c3 16 4 28 4 35c0 45 -22 68 -67 68c-36 0 -73 -21 -111 -63s-63 -96 -76 -162l-41 -211h-85l98 504h85l-18 -93c51 67 111 101 182 101c77 0 122 -41 122 -110c0 -16 -1 -32 -3 -47z" />
    <glyph glyph-name="Ncaron" unicode="&#x147;" horiz-adv-x="706" 
d="M536 932h98l-179 -164h-31l-124 164h89l61 -80zM475 153l107 547h89l-137 -700h-99l-205 545l-106 -545h-89l137 700h99z" />
    <glyph glyph-name="ncaron" unicode="&#x148;" 
d="M441 736h98l-179 -164h-31l-124 164h89l61 -80zM496 355l-69 -355h-85l64 333c3 16 4 28 4 35c0 45 -22 68 -67 68c-36 0 -73 -21 -111 -63s-63 -96 -76 -162l-41 -211h-85l98 504h85l-18 -93c51 67 111 101 182 101c77 0 122 -41 122 -110c0 -16 -1 -32 -3 -47z" />
    <glyph glyph-name="Omacron" unicode="&#x14c;" horiz-adv-x="713" 
d="M561 768h-249l15 76h249zM425 708c73 0 133 -25 178 -76c46 -50 69 -119 69 -207c0 -146 -50 -262 -151 -348c-66 -57 -144 -85 -235 -85c-73 0 -133 25 -179 75c-45 51 -68 120 -68 208c0 146 50 262 151 348c66 57 144 85 235 85zM410 624c-69 0 -130 -27 -181 -82
c-65 -69 -98 -156 -98 -259c0 -133 59 -207 170 -207c69 0 130 27 181 82c65 69 98 156 98 259c0 133 -59 207 -170 207z" />
    <glyph glyph-name="omacron" unicode="&#x14d;" horiz-adv-x="573" 
d="M445 572h-249l15 76h249zM27 204c0 83 23 153 69 210c53 65 124 98 213 98c124 0 199 -79 199 -212c0 -83 -23 -153 -69 -210c-53 -65 -124 -98 -213 -98c-124 0 -199 79 -199 212zM301 436c-56 0 -103 -24 -140 -71c-30 -38 -45 -88 -45 -149c0 -93 41 -148 118 -148
c56 0 103 24 140 71c30 38 45 88 45 149c0 93 -41 148 -118 148z" />
    <glyph glyph-name="Obreve" unicode="&#x14e;" horiz-adv-x="713" 
d="M502 877h67c-17 -69 -67 -109 -132 -109c-53 0 -92 35 -92 87c0 5 1 13 2 22h67c-1 -3 -1 -6 -1 -10c0 -21 15 -35 36 -35c29 0 47 15 53 45zM425 708c73 0 133 -25 178 -76c46 -50 69 -119 69 -207c0 -146 -50 -262 -151 -348c-66 -57 -144 -85 -235 -85
c-73 0 -133 25 -179 75c-45 51 -68 120 -68 208c0 146 50 262 151 348c66 57 144 85 235 85zM410 624c-69 0 -130 -27 -181 -82c-65 -69 -98 -156 -98 -259c0 -133 59 -207 170 -207c69 0 130 27 181 82c65 69 98 156 98 259c0 133 -59 207 -170 207z" />
    <glyph glyph-name="obreve" unicode="&#x14f;" horiz-adv-x="573" 
d="M386 681h67c-17 -69 -67 -109 -132 -109c-53 0 -92 35 -92 87c0 5 1 13 2 22h67c-1 -3 -1 -6 -1 -10c0 -21 15 -35 36 -35c29 0 47 15 53 45zM27 204c0 83 23 153 69 210c53 65 124 98 213 98c124 0 199 -79 199 -212c0 -83 -23 -153 -69 -210c-53 -65 -124 -98 -213 -98
c-124 0 -199 79 -199 212zM301 436c-56 0 -103 -24 -140 -71c-30 -38 -45 -88 -45 -149c0 -93 41 -148 118 -148c56 0 103 24 140 71c30 38 45 88 45 149c0 93 -41 148 -118 148z" />
    <glyph glyph-name="Ohungarumlaut" unicode="&#x150;" horiz-adv-x="713" 
d="M383 768h-72l97 144h123zM563 768h-72l97 144h123zM425 708c73 0 133 -25 178 -76c46 -50 69 -119 69 -207c0 -146 -50 -262 -151 -348c-66 -57 -144 -85 -235 -85c-73 0 -133 25 -179 75c-45 51 -68 120 -68 208c0 146 50 262 151 348c66 57 144 85 235 85zM410 624
c-69 0 -130 -27 -181 -82c-65 -69 -98 -156 -98 -259c0 -133 59 -207 170 -207c69 0 130 27 181 82c65 69 98 156 98 259c0 133 -59 207 -170 207z" />
    <glyph glyph-name="ohungarumlaut" unicode="&#x151;" horiz-adv-x="573" 
d="M267 572h-72l97 144h123zM447 572h-72l97 144h123zM27 204c0 83 23 153 69 210c53 65 124 98 213 98c124 0 199 -79 199 -212c0 -83 -23 -153 -69 -210c-53 -65 -124 -98 -213 -98c-124 0 -199 79 -199 212zM301 436c-56 0 -103 -24 -140 -71c-30 -38 -45 -88 -45 -149
c0 -93 41 -148 118 -148c56 0 103 24 140 71c30 38 45 88 45 149c0 93 -41 148 -118 148z" />
    <glyph glyph-name="OE" unicode="&#x152;" horiz-adv-x="1038" 
d="M627 600l20 100h396l-17 -84h-307l-39 -201h250l-16 -84h-250l-48 -247h317l-17 -84h-406l16 81l-5 -4c-66 -57 -144 -85 -235 -85c-73 0 -133 25 -179 75c-45 51 -68 120 -68 208c0 146 50 262 151 348c66 57 144 85 235 85s158 -36 202 -108zM410 624
c-69 0 -130 -27 -181 -82c-65 -69 -98 -156 -98 -259c0 -133 59 -207 170 -207c71 0 132 27 183 81c64 68 96 155 96 260c0 133 -59 207 -170 207z" />
    <glyph glyph-name="oe" unicode="&#x153;" horiz-adv-x="950" 
d="M886 273l-8 -39h-374c-2 -13 -3 -25 -3 -36c0 -80 42 -130 118 -130c71 0 114 32 157 99l72 -35c-67 -99 -137 -140 -244 -140c-77 0 -132 32 -165 97c-53 -65 -124 -97 -213 -97c-119 0 -199 80 -199 212c0 83 23 153 69 210c53 65 124 98 213 98c88 0 148 -36 179 -108
c59 72 131 108 217 108c115 0 186 -74 186 -189c0 -14 -2 -31 -5 -50zM301 436c-56 0 -103 -24 -140 -71c-30 -38 -45 -88 -45 -149c0 -95 42 -148 118 -148c57 0 104 24 141 71c29 37 44 87 44 149c0 95 -42 148 -118 148zM690 436c-73 0 -137 -51 -166 -126h278
c0 84 -37 126 -112 126z" />
    <glyph glyph-name="Racute" unicode="&#x154;" horiz-adv-x="596" 
d="M333 768h-72l97 144h123zM530 0h-99l-139 330h-103l-65 -330h-89l137 700h222c111 0 178 -60 178 -157c0 -116 -70 -192 -185 -207zM380 616h-136l-39 -202h139c85 0 136 38 136 113c0 59 -33 89 -100 89z" />
    <glyph glyph-name="racute" unicode="&#x155;" horiz-adv-x="437" 
d="M328 572h-72l97 144h123zM428 497l-31 -75c-17 9 -34 14 -53 14c-37 0 -74 -17 -110 -51c-35 -34 -60 -88 -75 -162l-44 -223h-85l98 504h85l-17 -86c40 63 94 94 163 94c30 0 53 -5 69 -15z" />
    <glyph glyph-name="Rcommaaccent" unicode="&#x156;" horiz-adv-x="596" 
d="M203 -277h-63l102 217h117zM530 0h-99l-139 330h-103l-65 -330h-89l137 700h222c111 0 178 -60 178 -157c0 -116 -70 -192 -185 -207zM380 616h-136l-39 -202h139c85 0 136 38 136 113c0 59 -33 89 -100 89z" />
    <glyph glyph-name="rcommaaccent" unicode="&#x157;" horiz-adv-x="437" 
d="M-7 -277h-63l102 217h117zM428 497l-31 -75c-17 9 -34 14 -53 14c-37 0 -74 -17 -110 -51c-35 -34 -60 -88 -75 -162l-44 -223h-85l98 504h85l-17 -86c40 63 94 94 163 94c30 0 53 -5 69 -15z" />
    <glyph glyph-name="Rcaron" unicode="&#x158;" horiz-adv-x="596" 
d="M398 932h98l-179 -164h-31l-124 164h89l61 -80zM530 0h-99l-139 330h-103l-65 -330h-89l137 700h222c111 0 178 -60 178 -157c0 -116 -70 -192 -185 -207zM380 616h-136l-39 -202h139c85 0 136 38 136 113c0 59 -33 89 -100 89z" />
    <glyph glyph-name="rcaron" unicode="&#x159;" horiz-adv-x="437" 
d="M393 736h98l-179 -164h-31l-124 164h89l61 -80zM428 497l-31 -75c-17 9 -34 14 -53 14c-37 0 -74 -17 -110 -51c-35 -34 -60 -88 -75 -162l-44 -223h-85l98 504h85l-17 -86c40 63 94 94 163 94c30 0 53 -5 69 -15z" />
    <glyph glyph-name="Sacute" unicode="&#x15a;" horiz-adv-x="523" 
d="M379 768h-72l97 144h123zM487 584l-76 -42c-20 55 -52 82 -96 82c-61 0 -97 -37 -97 -97c0 -57 32 -84 111 -125c47 -24 69 -39 96 -67s37 -63 37 -112c0 -71 -22 -126 -66 -166c-53 -49 -105 -65 -185 -65c-50 0 -94 19 -132 56c-38 38 -57 83 -57 136l80 43
c7 -89 49 -151 128 -151c80 0 140 47 140 131c0 64 -31 91 -107 128c-91 45 -137 104 -137 179c0 123 84 194 205 194c80 0 139 -56 156 -124z" />
    <glyph glyph-name="sacute" unicode="&#x15b;" horiz-adv-x="460" 
d="M307 572h-72l97 144h123zM259 512c63 0 118 -32 145 -84l-66 -49c-25 38 -55 57 -89 57c-39 0 -68 -24 -68 -63c0 -35 25 -55 69 -75c37 -16 55 -25 83 -48c29 -21 43 -53 43 -92c0 -103 -75 -166 -182 -166c-49 0 -90 14 -122 42c-32 29 -51 62 -56 101l74 36
c14 -69 52 -103 114 -103c51 0 83 30 83 74c0 25 -6 42 -26 57s-30 19 -66 35c-66 29 -99 74 -99 134c0 89 64 144 163 144z" />
    <glyph glyph-name="Scircumflex" unicode="&#x15c;" horiz-adv-x="523" 
d="M274 768h-98l179 164h31l124 -164h-89l-61 80zM487 584l-76 -42c-20 55 -52 82 -96 82c-61 0 -97 -37 -97 -97c0 -57 32 -84 111 -125c47 -24 69 -39 96 -67s37 -63 37 -112c0 -71 -22 -126 -66 -166c-53 -49 -105 -65 -185 -65c-50 0 -94 19 -132 56
c-38 38 -57 83 -57 136l80 43c7 -89 49 -151 128 -151c80 0 140 47 140 131c0 64 -31 91 -107 128c-91 45 -137 104 -137 179c0 123 84 194 205 194c80 0 139 -56 156 -124z" />
    <glyph glyph-name="scircumflex" unicode="&#x15d;" horiz-adv-x="460" 
d="M202 572h-98l179 164h31l124 -164h-89l-61 80zM259 512c63 0 118 -32 145 -84l-66 -49c-25 38 -55 57 -89 57c-39 0 -68 -24 -68 -63c0 -35 25 -55 69 -75c37 -16 55 -25 83 -48c29 -21 43 -53 43 -92c0 -103 -75 -166 -182 -166c-49 0 -90 14 -122 42
c-32 29 -51 62 -56 101l74 36c14 -69 52 -103 114 -103c51 0 83 30 83 74c0 25 -6 42 -26 57s-30 19 -66 35c-66 29 -99 74 -99 134c0 89 64 144 163 144z" />
    <glyph glyph-name="Scedilla" unicode="&#x15e;" horiz-adv-x="523" 
d="M142 -2h74l-111 -175l-89 45zM487 584l-76 -42c-20 55 -52 82 -96 82c-61 0 -97 -37 -97 -97c0 -57 32 -84 111 -125c47 -24 69 -39 96 -67s37 -63 37 -112c0 -71 -22 -126 -66 -166c-53 -49 -105 -65 -185 -65c-50 0 -94 19 -132 56c-38 38 -57 83 -57 136l80 43
c7 -89 49 -151 128 -151c80 0 140 47 140 131c0 64 -31 91 -107 128c-91 45 -137 104 -137 179c0 123 84 194 205 194c80 0 139 -56 156 -124z" />
    <glyph glyph-name="scedilla" unicode="&#x15f;" horiz-adv-x="460" 
d="M125 -2h74l-111 -175l-89 45zM259 512c63 0 118 -32 145 -84l-66 -49c-25 38 -55 57 -89 57c-39 0 -68 -24 -68 -63c0 -35 25 -55 69 -75c37 -16 55 -25 83 -48c29 -21 43 -53 43 -92c0 -103 -75 -166 -182 -166c-49 0 -90 14 -122 42c-32 29 -51 62 -56 101l74 36
c14 -69 52 -103 114 -103c51 0 83 30 83 74c0 25 -6 42 -26 57s-30 19 -66 35c-66 29 -99 74 -99 134c0 89 64 144 163 144z" />
    <glyph glyph-name="Scaron" unicode="&#x160;" horiz-adv-x="523" 
d="M487 584l-76 -42c-20 55 -52 82 -96 82c-61 0 -97 -37 -97 -97c0 -57 32 -84 111 -125c47 -24 69 -39 96 -67s37 -63 37 -112c0 -71 -22 -126 -66 -166c-53 -49 -105 -65 -185 -65c-50 0 -94 19 -132 56c-38 38 -57 83 -57 136l80 43c7 -89 49 -151 128 -151
c80 0 140 47 140 131c0 64 -31 91 -107 128c-91 45 -137 104 -137 179c0 123 84 194 205 194c80 0 139 -56 156 -124zM430 926h98l-179 -164h-31l-124 164h89l61 -80z" />
    <glyph glyph-name="scaron" unicode="&#x161;" horiz-adv-x="460" 
d="M259 512c63 0 118 -32 145 -84l-66 -49c-25 38 -55 57 -89 57c-39 0 -68 -24 -68 -63c0 -35 25 -55 69 -75c37 -16 55 -25 83 -48c29 -21 43 -53 43 -92c0 -103 -75 -166 -182 -166c-49 0 -90 14 -122 42c-32 29 -51 62 -56 101l74 36c14 -69 52 -103 114 -103
c51 0 83 30 83 74c0 25 -6 42 -26 57s-30 19 -66 35c-66 29 -99 74 -99 134c0 89 64 144 163 144zM377 730h98l-179 -164h-31l-124 164h89l61 -80z" />
    <glyph glyph-name="Tcommaaccent" unicode="&#x162;" horiz-adv-x="507" 
d="M114 6h74l-111 -175l-89 45zM258 616h-197l17 84h483l-17 -84h-197l-120 -616h-89z" />
    <glyph glyph-name="tcommaaccent" unicode="&#x163;" horiz-adv-x="350" 
d="M108 -2h74l-111 -175l-89 45zM116 428h-87l14 76h87l30 151l94 53l-40 -204h127l-14 -76h-127l-52 -268c-3 -17 -5 -29 -5 -36c0 -37 18 -56 54 -56c21 0 41 5 60 16l6 -73c-25 -13 -53 -19 -86 -19c-76 0 -119 41 -119 117c0 11 2 30 7 58z" />
    <glyph glyph-name="Tcaron" unicode="&#x164;" horiz-adv-x="507" 
d="M434 932h98l-179 -164h-31l-124 164h89l61 -80zM258 616h-197l17 84h483l-17 -84h-197l-120 -616h-89z" />
    <glyph glyph-name="tcaron" unicode="&#x165;" horiz-adv-x="350" 
d="M365 491h-63l102 217h117zM116 428h-87l14 76h87l30 151l94 53l-40 -204h127l-14 -76h-127l-52 -268c-3 -17 -5 -29 -5 -36c0 -37 18 -56 54 -56c21 0 41 5 60 16l6 -73c-25 -13 -53 -19 -86 -19c-76 0 -119 41 -119 117c0 11 2 30 7 58z" />
    <glyph glyph-name="Utilde" unicode="&#x168;" horiz-adv-x="672" 
d="M295 773l-41 42c36 49 76 73 121 73c24 0 46 -7 66 -20c21 -13 39 -20 54 -20c25 0 50 12 73 35l41 -43c-36 -48 -76 -72 -121 -72c-24 0 -46 7 -67 20c-20 13 -38 20 -53 20c-25 0 -50 -12 -73 -35zM76 238l89 462h89l-91 -468c-3 -17 -4 -31 -4 -40
c0 -77 41 -116 122 -116c101 0 167 57 186 156l91 468h89l-89 -462c-31 -164 -127 -246 -288 -246c-60 0 -108 16 -145 49s-55 77 -55 130c0 23 2 46 6 67z" />
    <glyph glyph-name="utilde" unicode="&#x169;" 
d="M211 577l-41 42c36 49 76 73 121 73c24 0 46 -7 66 -20c21 -13 39 -20 54 -20c25 0 50 12 73 35l41 -43c-36 -48 -76 -72 -121 -72c-24 0 -46 7 -67 20c-20 13 -38 20 -53 20c-25 0 -50 -12 -73 -35zM55 149l69 355h85l-64 -333c-3 -16 -4 -28 -4 -35
c0 -45 22 -68 67 -68c36 0 73 21 111 63s63 96 76 162l41 211h85l-98 -504h-85l18 93c-51 -67 -111 -101 -182 -101c-77 0 -122 41 -122 110c0 16 1 32 3 47z" />
    <glyph glyph-name="Umacron" unicode="&#x16a;" horiz-adv-x="672" 
d="M544 768h-249l15 76h249zM76 238l89 462h89l-91 -468c-3 -17 -4 -31 -4 -40c0 -77 41 -116 122 -116c101 0 167 57 186 156l91 468h89l-89 -462c-31 -164 -127 -246 -288 -246c-60 0 -108 16 -145 49s-55 77 -55 130c0 23 2 46 6 67z" />
    <glyph glyph-name="umacron" unicode="&#x16b;" 
d="M460 572h-249l15 76h249zM55 149l69 355h85l-64 -333c-3 -16 -4 -28 -4 -35c0 -45 22 -68 67 -68c36 0 73 21 111 63s63 96 76 162l41 211h85l-98 -504h-85l18 93c-51 -67 -111 -101 -182 -101c-77 0 -122 41 -122 110c0 16 1 32 3 47z" />
    <glyph glyph-name="Ubreve" unicode="&#x16c;" horiz-adv-x="672" 
d="M485 877h67c-17 -69 -67 -109 -132 -109c-53 0 -92 35 -92 87c0 5 1 13 2 22h67c-1 -3 -1 -6 -1 -10c0 -21 15 -35 36 -35c29 0 47 15 53 45zM76 238l89 462h89l-91 -468c-3 -17 -4 -31 -4 -40c0 -77 41 -116 122 -116c101 0 167 57 186 156l91 468h89l-89 -462
c-31 -164 -127 -246 -288 -246c-60 0 -108 16 -145 49s-55 77 -55 130c0 23 2 46 6 67z" />
    <glyph glyph-name="ubreve" unicode="&#x16d;" 
d="M401 681h67c-17 -69 -67 -109 -132 -109c-53 0 -92 35 -92 87c0 5 1 13 2 22h67c-1 -3 -1 -6 -1 -10c0 -21 15 -35 36 -35c29 0 47 15 53 45zM55 149l69 355h85l-64 -333c-3 -16 -4 -28 -4 -35c0 -45 22 -68 67 -68c36 0 73 21 111 63s63 96 76 162l41 211h85l-98 -504
h-85l18 93c-51 -67 -111 -101 -182 -101c-77 0 -122 41 -122 110c0 16 1 32 3 47z" />
    <glyph glyph-name="Uring" unicode="&#x16e;" horiz-adv-x="672" 
d="M339 864c0 56 43 100 99 100c57 0 99 -44 99 -100c0 -55 -42 -96 -99 -96c-56 0 -99 41 -99 96zM395 865c-5 -57 91 -57 86 0c5 60 -91 60 -86 0zM76 238l89 462h89l-91 -468c-3 -17 -4 -31 -4 -40c0 -77 41 -116 122 -116c101 0 167 57 186 156l91 468h89l-89 -462
c-31 -164 -127 -246 -288 -246c-60 0 -108 16 -145 49s-55 77 -55 130c0 23 2 46 6 67z" />
    <glyph glyph-name="uring" unicode="&#x16f;" 
d="M256 668c0 56 43 100 99 100c57 0 99 -44 99 -100c0 -55 -42 -96 -99 -96c-56 0 -99 41 -99 96zM312 669c-5 -57 91 -57 86 0c5 60 -91 60 -86 0zM55 149l69 355h85l-64 -333c-3 -16 -4 -28 -4 -35c0 -45 22 -68 67 -68c36 0 73 21 111 63s63 96 76 162l41 211h85
l-98 -504h-85l18 93c-51 -67 -111 -101 -182 -101c-77 0 -122 41 -122 110c0 16 1 32 3 47z" />
    <glyph glyph-name="Uhungarumlaut" unicode="&#x170;" horiz-adv-x="672" 
d="M366 768h-72l97 144h123zM546 768h-72l97 144h123zM76 238l89 462h89l-91 -468c-3 -17 -4 -31 -4 -40c0 -77 41 -116 122 -116c101 0 167 57 186 156l91 468h89l-89 -462c-31 -164 -127 -246 -288 -246c-60 0 -108 16 -145 49s-55 77 -55 130c0 23 2 46 6 67z" />
    <glyph glyph-name="uhungarumlaut" unicode="&#x171;" 
d="M282 572h-72l97 144h123zM462 572h-72l97 144h123zM55 149l69 355h85l-64 -333c-3 -16 -4 -28 -4 -35c0 -45 22 -68 67 -68c36 0 73 21 111 63s63 96 76 162l41 211h85l-98 -504h-85l18 93c-51 -67 -111 -101 -182 -101c-77 0 -122 41 -122 110c0 16 1 32 3 47z" />
    <glyph glyph-name="Uogonek" unicode="&#x172;" horiz-adv-x="672" 
d="M207 -2h62c-49 -33 -73 -62 -73 -85c0 -17 8 -25 25 -25c21 0 35 10 63 41l36 -35c-41 -51 -75 -71 -122 -71c-43 0 -71 26 -71 67c0 38 27 74 80 108zM76 238l89 462h89l-91 -468c-3 -17 -4 -31 -4 -40c0 -77 41 -116 122 -116c101 0 167 57 186 156l91 468h89l-89 -462
c-31 -164 -127 -246 -288 -246c-60 0 -108 16 -145 49s-55 77 -55 130c0 23 2 46 6 67z" />
    <glyph glyph-name="uogonek" unicode="&#x173;" 
d="M142 -2h62c-49 -33 -73 -62 -73 -85c0 -17 8 -25 25 -25c21 0 35 10 63 41l36 -35c-41 -51 -75 -71 -122 -71c-43 0 -71 26 -71 67c0 38 27 74 80 108zM55 149l69 355h85l-64 -333c-3 -16 -4 -28 -4 -35c0 -45 22 -68 67 -68c36 0 73 21 111 63s63 96 76 162l41 211h85
l-98 -504h-85l18 93c-51 -67 -111 -101 -182 -101c-77 0 -122 41 -122 110c0 16 1 32 3 47z" />
    <glyph glyph-name="Wcircumflex" unicode="&#x174;" horiz-adv-x="886" 
d="M450 768h-98l179 164h31l124 -164h-89l-61 80zM577 130l249 570h94l-319 -700h-89l-55 480l-226 -480h-89l-52 700h93l28 -570l233 496h83z" />
    <glyph glyph-name="wcircumflex" unicode="&#x175;" horiz-adv-x="723" 
d="M330 572h-98l179 164h31l124 -164h-89l-61 80zM450 113l176 391h89l-245 -504h-82l-22 381l-171 -381h-82l-58 504h86l31 -391l173 391h86z" />
    <glyph glyph-name="Ycircumflex" unicode="&#x176;" horiz-adv-x="484" 
d="M248 768h-98l179 164h31l124 -164h-89l-61 80zM123 0l59 302l-126 398h94l91 -310l210 310h99l-279 -398l-59 -302h-89z" />
    <glyph glyph-name="ycircumflex" unicode="&#x177;" horiz-adv-x="466" 
d="M201 572h-98l179 164h31l124 -164h-89l-61 80zM188 140l194 364h89l-385 -708h-89l125 236l-81 472h89z" />
    <glyph glyph-name="Ydieresis" unicode="&#x178;" horiz-adv-x="484" 
d="M123 0l59 302l-126 398h94l91 -310l210 310h99l-279 -398l-59 -302h-89zM231 904c33 0 57 -25 57 -57s-24 -56 -57 -56c-31 0 -56 24 -56 56s25 57 56 57zM397 904c33 0 57 -25 57 -57s-24 -56 -57 -56c-31 0 -56 24 -56 56s25 57 56 57z" />
    <glyph glyph-name="Zacute" unicode="&#x179;" horiz-adv-x="550" 
d="M385 768h-72l97 144h123zM411 616h-310l17 84h435l-9 -42l-424 -574h331l-17 -84h-455l8 42z" />
    <glyph glyph-name="zacute" unicode="&#x17a;" horiz-adv-x="468" 
d="M319 572h-72l97 144h123zM309 428h-227l14 76h347l-7 -36l-310 -392h248l-14 -76h-365l7 36z" />
    <glyph glyph-name="Zdotaccent" unicode="&#x17b;" horiz-adv-x="550" 
d="M298 830c0 36 28 64 63 64c36 0 63 -28 63 -64c0 -35 -27 -62 -63 -62c-35 0 -63 27 -63 62zM411 616h-310l17 84h435l-9 -42l-424 -574h331l-17 -84h-455l8 42z" />
    <glyph glyph-name="zdotaccent" unicode="&#x17c;" horiz-adv-x="468" 
d="M232 634c0 36 28 64 63 64c36 0 63 -28 63 -64c0 -35 -27 -62 -63 -62c-35 0 -63 27 -63 62zM309 428h-227l14 76h347l-7 -36l-310 -392h248l-14 -76h-365l7 36z" />
    <glyph glyph-name="Zcaron" unicode="&#x17d;" horiz-adv-x="550" 
d="M411 616h-310l17 84h435l-9 -42l-424 -574h331l-17 -84h-455l8 42zM428 926h98l-179 -164h-31l-124 164h89l61 -80z" />
    <glyph glyph-name="zcaron" unicode="&#x17e;" horiz-adv-x="468" 
d="M309 428h-227l14 76h347l-7 -36l-310 -392h248l-14 -76h-365l7 36zM372 730h98l-179 -164h-31l-124 164h89l61 -80z" />
    <glyph glyph-name="longs" unicode="&#x17f;" horiz-adv-x="460" 
d="M259 512c63 0 118 -32 145 -84l-66 -49c-25 38 -55 57 -89 57c-39 0 -68 -24 -68 -63c0 -35 25 -55 69 -75c37 -16 55 -25 83 -48c29 -21 43 -53 43 -92c0 -103 -75 -166 -182 -166c-49 0 -90 14 -122 42c-32 29 -51 62 -56 101l74 36c14 -69 52 -103 114 -103
c51 0 83 30 83 74c0 25 -6 42 -26 57s-30 19 -66 35c-66 29 -99 74 -99 134c0 89 64 144 163 144z" />
    <glyph glyph-name="uni0189" unicode="&#x189;" horiz-adv-x="669" 
d="M95 308h-58l17 84h57l61 308h180c168 0 276 -98 276 -279c0 -119 -37 -219 -112 -300c-74 -81 -170 -121 -287 -121h-194zM333 616h-89l-44 -224h130l-17 -84h-129l-43 -224h89c92 0 165 31 220 93c55 63 83 141 83 235c0 136 -71 204 -200 204z" />
    <glyph glyph-name="florin" unicode="&#x192;" horiz-adv-x="438" 
d="M212 428h-89l14 76h89l7 33c25 120 91 171 196 171c27 0 50 -5 69 -16l-31 -74c-17 9 -35 14 -54 14c-55 0 -83 -30 -96 -95l-7 -33h114l-14 -76h-114l-91 -469c-22 -114 -87 -171 -196 -171c-27 0 -50 5 -69 16l31 74c17 -9 35 -14 54 -14c55 0 83 30 96 95z" />
    <glyph glyph-name="Ohorn" unicode="&#x1a0;" horiz-adv-x="713" 
d="M476 491h-63l102 217h117zM425 708c73 0 133 -25 178 -76c46 -50 69 -119 69 -207c0 -146 -50 -262 -151 -348c-66 -57 -144 -85 -235 -85c-73 0 -133 25 -179 75c-45 51 -68 120 -68 208c0 146 50 262 151 348c66 57 144 85 235 85zM410 624c-69 0 -130 -27 -181 -82
c-65 -69 -98 -156 -98 -259c0 -133 59 -207 170 -207c69 0 130 27 181 82c65 69 98 156 98 259c0 133 -59 207 -170 207z" />
    <glyph glyph-name="ohorn" unicode="&#x1a1;" horiz-adv-x="573" 
d="M360 295h-63l102 217h117zM27 204c0 83 23 153 69 210c53 65 124 98 213 98c124 0 199 -79 199 -212c0 -83 -23 -153 -69 -210c-53 -65 -124 -98 -213 -98c-124 0 -199 79 -199 212zM301 436c-56 0 -103 -24 -140 -71c-30 -38 -45 -88 -45 -149c0 -93 41 -148 118 -148
c56 0 103 24 140 71c30 38 45 88 45 149c0 93 -41 148 -118 148z" />
    <glyph glyph-name="Uhorn" unicode="&#x1af;" horiz-adv-x="672" 
d="M699 491h-63l102 217h117zM76 238l89 462h89l-91 -468c-3 -17 -4 -31 -4 -40c0 -77 41 -116 122 -116c101 0 167 57 186 156l91 468h89l-89 -462c-31 -164 -127 -246 -288 -246c-60 0 -108 16 -145 49s-55 77 -55 130c0 23 2 46 6 67z" />
    <glyph glyph-name="uhorn" unicode="&#x1b0;" 
d="M573 295h-63l102 217h117zM55 149l69 355h85l-64 -333c-3 -16 -4 -28 -4 -35c0 -45 22 -68 67 -68c36 0 73 21 111 63s63 96 76 162l41 211h85l-98 -504h-85l18 93c-51 -67 -111 -101 -182 -101c-77 0 -122 41 -122 110c0 16 1 32 3 47z" />
    <glyph glyph-name="uni01C0" unicode="&#x1c0;" horiz-adv-x="245" 
d="M100 -50v800h80v-800h-80z" />
    <glyph glyph-name="uni01C1" unicode="&#x1c1;" horiz-adv-x="490" 
d="M345 -50v800h80v-800h-80zM100 -50v800h80v-800h-80z" />
    <glyph glyph-name="uni01C4" unicode="&#x1c4;" horiz-adv-x="1219" 
d="M1080 616h-310l17 84h435l-9 -42l-424 -574h331l-17 -84h-455l8 42zM1097 926h98l-179 -164h-31l-124 164h89l61 -80zM35 0l137 700h180c168 0 276 -98 276 -279c0 -119 -37 -219 -112 -300c-74 -81 -170 -121 -287 -121h-194zM333 616h-89l-103 -532h89
c92 0 165 31 220 93c55 63 83 141 83 235c0 136 -71 204 -200 204z" />
    <glyph glyph-name="uni01C5" unicode="&#x1c5;" horiz-adv-x="1137" 
d="M978 428h-227l14 76h347l-7 -36l-310 -392h248l-14 -76h-365l7 36zM1041 730h98l-179 -164h-31l-124 164h89l61 -80zM35 0l137 700h180c168 0 276 -98 276 -279c0 -119 -37 -219 -112 -300c-74 -81 -170 -121 -287 -121h-194zM333 616h-89l-103 -532h89
c92 0 165 31 220 93c55 63 83 141 83 235c0 136 -71 204 -200 204z" />
    <glyph glyph-name="uni01C6" unicode="&#x1c6;" horiz-adv-x="1080" 
d="M921 428h-227l14 76h347l-7 -36l-310 -392h248l-14 -76h-365l7 36zM984 730h98l-179 -164h-31l-124 164h89l61 -80zM302 512c63 0 116 -28 139 -68l51 264h85l-138 -708h-85l13 62c-43 -47 -96 -70 -158 -70c-116 0 -182 75 -182 194c0 89 25 166 75 230s117 96 200 96z
M116 208c0 -85 41 -140 116 -140c39 0 73 13 102 39c59 53 82 127 82 199c0 85 -48 130 -121 130c-38 0 -71 -12 -100 -37c-56 -49 -79 -120 -79 -191z" />
    <glyph glyph-name="uni01C7" unicode="&#x1c7;" horiz-adv-x="1047" 
d="M835 219l93 481h89l-100 -515c-24 -127 -109 -193 -228 -193c-53 0 -96 18 -129 55s-49 79 -49 128l89 19c0 -79 33 -118 99 -118c72 0 117 48 136 143zM35 0l137 700h89l-120 -616h308l-17 -84h-397z" />
    <glyph glyph-name="uni01C8" unicode="&#x1c8;" horiz-adv-x="782" 
d="M426 -212l-8 82c68 17 102 41 115 112l101 522h85l-103 -530c-23 -117 -78 -169 -190 -186zM638 644c0 36 27 64 63 64s63 -28 63 -64c0 -35 -27 -62 -63 -62s-63 27 -63 62zM35 0l137 700h89l-120 -616h308l-17 -84h-397z" />
    <glyph glyph-name="uni01C9" unicode="&#x1c9;" horiz-adv-x="582" 
d="M226 -212l-8 82c68 17 102 41 115 112l101 522h85l-103 -530c-23 -117 -78 -169 -190 -186zM438 644c0 36 27 64 63 64s63 -28 63 -64c0 -35 -27 -62 -63 -62s-63 27 -63 62zM49 0l137 708h85l-137 -708h-85z" />
    <glyph glyph-name="uni01CA" unicode="&#x1ca;" horiz-adv-x="1247" 
d="M1035 219l93 481h89l-100 -515c-24 -127 -109 -193 -228 -193c-53 0 -96 18 -129 55s-49 79 -49 128l89 19c0 -79 33 -118 99 -118c72 0 117 48 136 143zM475 153l107 547h89l-137 -700h-99l-205 545l-106 -545h-89l137 700h99z" />
    <glyph glyph-name="uni01CB" unicode="&#x1cb;" horiz-adv-x="982" 
d="M626 -212l-8 82c68 17 102 41 115 112l101 522h85l-103 -530c-23 -117 -78 -169 -190 -186zM838 644c0 36 27 64 63 64s63 -28 63 -64c0 -35 -27 -62 -63 -62s-63 27 -63 62zM475 153l107 547h89l-137 -700h-99l-205 545l-106 -545h-89l137 700h99z" />
    <glyph glyph-name="uni01CC" unicode="&#x1cc;" horiz-adv-x="853" 
d="M497 -212l-8 82c68 17 102 41 115 112l101 522h85l-103 -530c-23 -117 -78 -169 -190 -186zM709 644c0 36 27 64 63 64s63 -28 63 -64c0 -35 -27 -62 -63 -62s-63 27 -63 62zM496 355l-69 -355h-85l64 333c3 16 4 28 4 35c0 45 -22 68 -67 68c-36 0 -73 -21 -111 -63
s-63 -96 -76 -162l-41 -211h-85l98 504h85l-18 -93c51 67 111 101 182 101c77 0 122 -41 122 -110c0 -16 -1 -32 -3 -47z" />
    <glyph glyph-name="uni01CD" unicode="&#x1cd;" horiz-adv-x="574" 
d="M472 932h98l-179 -164h-31l-124 164h89l61 -80zM-57 0l372 700h85l106 -700h-89l-25 187h-261l-99 -187h-89zM380 271l-45 315l-160 -315h205z" />
    <glyph glyph-name="uni01CE" unicode="&#x1ce;" horiz-adv-x="586" 
d="M413 736h98l-179 -164h-31l-124 164h89l61 -80zM530 504l-97 -504h-85l12 62c-42 -47 -92 -70 -149 -70c-121 0 -184 84 -184 205c0 88 24 162 72 223s115 92 201 92c65 0 121 -35 134 -68l11 60h85zM235 68c38 0 71 13 98 38c56 52 76 125 76 198c0 81 -41 132 -116 132
c-57 0 -100 -22 -131 -66s-46 -94 -46 -150c0 -93 44 -152 119 -152z" />
    <glyph glyph-name="uni01CF" unicode="&#x1cf;" horiz-adv-x="296" 
d="M331 932h98l-179 -164h-31l-124 164h89l61 -80zM35 0l137 700h89l-137 -700h-89z" />
    <glyph glyph-name="uni01D0" unicode="&#x1d0;" horiz-adv-x="276" 
d="M285 736h98l-179 -164h-31l-124 164h89l61 -80zM30 0l98 504h85l-98 -504h-85z" />
    <glyph glyph-name="uni01D1" unicode="&#x1d1;" horiz-adv-x="713" 
d="M538 932h98l-179 -164h-31l-124 164h89l61 -80zM425 708c73 0 133 -25 178 -76c46 -50 69 -119 69 -207c0 -146 -50 -262 -151 -348c-66 -57 -144 -85 -235 -85c-73 0 -133 25 -179 75c-45 51 -68 120 -68 208c0 146 50 262 151 348c66 57 144 85 235 85zM410 624
c-69 0 -130 -27 -181 -82c-65 -69 -98 -156 -98 -259c0 -133 59 -207 170 -207c69 0 130 27 181 82c65 69 98 156 98 259c0 133 -59 207 -170 207z" />
    <glyph glyph-name="uni01D2" unicode="&#x1d2;" horiz-adv-x="573" 
d="M422 736h98l-179 -164h-31l-124 164h89l61 -80zM27 204c0 83 23 153 69 210c53 65 124 98 213 98c124 0 199 -79 199 -212c0 -83 -23 -153 -69 -210c-53 -65 -124 -98 -213 -98c-124 0 -199 79 -199 212zM301 436c-56 0 -103 -24 -140 -71c-30 -38 -45 -88 -45 -149
c0 -93 41 -148 118 -148c56 0 103 24 140 71c30 38 45 88 45 149c0 93 -41 148 -118 148z" />
    <glyph glyph-name="uni01D3" unicode="&#x1d3;" horiz-adv-x="672" 
d="M521 932h98l-179 -164h-31l-124 164h89l61 -80zM76 238l89 462h89l-91 -468c-3 -17 -4 -31 -4 -40c0 -77 41 -116 122 -116c101 0 167 57 186 156l91 468h89l-89 -462c-31 -164 -127 -246 -288 -246c-60 0 -108 16 -145 49s-55 77 -55 130c0 23 2 46 6 67z" />
    <glyph glyph-name="uni01D4" unicode="&#x1d4;" 
d="M437 736h98l-179 -164h-31l-124 164h89l61 -80zM55 149l69 355h85l-64 -333c-3 -16 -4 -28 -4 -35c0 -45 22 -68 67 -68c36 0 73 21 111 63s63 96 76 162l41 211h85l-98 -504h-85l18 93c-51 -67 -111 -101 -182 -101c-77 0 -122 41 -122 110c0 16 1 32 3 47z" />
    <glyph glyph-name="uni01D5" unicode="&#x1d5;" horiz-adv-x="671" 
d="M563 964h-249l15 76h249zM76 238l89 462h89l-91 -468c-3 -17 -4 -31 -4 -40c0 -77 41 -116 122 -116c101 0 167 57 186 156l91 468h89l-89 -462c-31 -164 -127 -246 -288 -246c-60 0 -108 16 -145 49s-55 77 -55 130c0 23 2 46 6 67zM344 904c33 0 57 -25 57 -57
s-24 -56 -57 -56c-31 0 -56 24 -56 56s25 57 56 57zM510 904c33 0 57 -25 57 -57s-24 -56 -57 -56c-31 0 -56 24 -56 56s25 57 56 57z" />
    <glyph glyph-name="uni01D6" unicode="&#x1d6;" 
d="M477 768h-249l15 76h249zM55 149l69 355h85l-64 -333c-3 -16 -4 -28 -4 -35c0 -45 22 -68 67 -68c36 0 73 21 111 63s63 96 76 162l41 211h85l-98 -504h-85l18 93c-51 -67 -111 -101 -182 -101c-77 0 -122 41 -122 110c0 16 1 32 3 47zM258 708c33 0 57 -25 57 -57
s-24 -56 -57 -56c-31 0 -56 24 -56 56s25 57 56 57zM424 708c33 0 57 -25 57 -57s-24 -56 -57 -56c-31 0 -56 24 -56 56s25 57 56 57z" />
    <glyph glyph-name="uni01D7" unicode="&#x1d7;" horiz-adv-x="671" 
d="M475 964h-72l97 144h123zM76 238l89 462h89l-91 -468c-3 -17 -4 -31 -4 -40c0 -77 41 -116 122 -116c101 0 167 57 186 156l91 468h89l-89 -462c-31 -164 -127 -246 -288 -246c-60 0 -108 16 -145 49s-55 77 -55 130c0 23 2 46 6 67zM344 904c33 0 57 -25 57 -57
s-24 -56 -57 -56c-31 0 -56 24 -56 56s25 57 56 57zM510 904c33 0 57 -25 57 -57s-24 -56 -57 -56c-31 0 -56 24 -56 56s25 57 56 57z" />
    <glyph glyph-name="uni01D8" unicode="&#x1d8;" 
d="M389 768h-72l97 144h123zM55 149l69 355h85l-64 -333c-3 -16 -4 -28 -4 -35c0 -45 22 -68 67 -68c36 0 73 21 111 63s63 96 76 162l41 211h85l-98 -504h-85l18 93c-51 -67 -111 -101 -182 -101c-77 0 -122 41 -122 110c0 16 1 32 3 47zM258 708c33 0 57 -25 57 -57
s-24 -56 -57 -56c-31 0 -56 24 -56 56s25 57 56 57zM424 708c33 0 57 -25 57 -57s-24 -56 -57 -56c-31 0 -56 24 -56 56s25 57 56 57z" />
    <glyph glyph-name="uni01D9" unicode="&#x1d9;" horiz-adv-x="671" 
d="M540 1128h98l-179 -164h-31l-124 164h89l61 -80zM76 238l89 462h89l-91 -468c-3 -17 -4 -31 -4 -40c0 -77 41 -116 122 -116c101 0 167 57 186 156l91 468h89l-89 -462c-31 -164 -127 -246 -288 -246c-60 0 -108 16 -145 49s-55 77 -55 130c0 23 2 46 6 67zM344 904
c33 0 57 -25 57 -57s-24 -56 -57 -56c-31 0 -56 24 -56 56s25 57 56 57zM510 904c33 0 57 -25 57 -57s-24 -56 -57 -56c-31 0 -56 24 -56 56s25 57 56 57z" />
    <glyph glyph-name="uni01DA" unicode="&#x1da;" 
d="M454 932h98l-179 -164h-31l-124 164h89l61 -80zM55 149l69 355h85l-64 -333c-3 -16 -4 -28 -4 -35c0 -45 22 -68 67 -68c36 0 73 21 111 63s63 96 76 162l41 211h85l-98 -504h-85l18 93c-51 -67 -111 -101 -182 -101c-77 0 -122 41 -122 110c0 16 1 32 3 47zM258 708
c33 0 57 -25 57 -57s-24 -56 -57 -56c-31 0 -56 24 -56 56s25 57 56 57zM424 708c33 0 57 -25 57 -57s-24 -56 -57 -56c-31 0 -56 24 -56 56s25 57 56 57z" />
    <glyph glyph-name="uni01DB" unicode="&#x1db;" horiz-adv-x="671" 
d="M304 1108h121l48 -144h-68zM76 238l89 462h89l-91 -468c-3 -17 -4 -31 -4 -40c0 -77 41 -116 122 -116c101 0 167 57 186 156l91 468h89l-89 -462c-31 -164 -127 -246 -288 -246c-60 0 -108 16 -145 49s-55 77 -55 130c0 23 2 46 6 67zM344 904c33 0 57 -25 57 -57
s-24 -56 -57 -56c-31 0 -56 24 -56 56s25 57 56 57zM510 904c33 0 57 -25 57 -57s-24 -56 -57 -56c-31 0 -56 24 -56 56s25 57 56 57z" />
    <glyph glyph-name="uni01DC" unicode="&#x1dc;" 
d="M218 912h121l48 -144h-68zM55 149l69 355h85l-64 -333c-3 -16 -4 -28 -4 -35c0 -45 22 -68 67 -68c36 0 73 21 111 63s63 96 76 162l41 211h85l-98 -504h-85l18 93c-51 -67 -111 -101 -182 -101c-77 0 -122 41 -122 110c0 16 1 32 3 47zM258 708c33 0 57 -25 57 -57
s-24 -56 -57 -56c-31 0 -56 24 -56 56s25 57 56 57zM424 708c33 0 57 -25 57 -57s-24 -56 -57 -56c-31 0 -56 24 -56 56s25 57 56 57z" />
    <glyph glyph-name="uni01DE" unicode="&#x1de;" horiz-adv-x="574" 
d="M521 964h-249l15 76h249zM-57 0l372 700h85l106 -700h-89l-25 187h-261l-99 -187h-89zM380 271l-45 315l-160 -315h205zM302 904c33 0 57 -25 57 -57s-24 -56 -57 -56c-31 0 -56 24 -56 56s25 57 56 57zM468 904c33 0 57 -25 57 -57s-24 -56 -57 -56c-31 0 -56 24 -56 56
s25 57 56 57z" />
    <glyph glyph-name="uni01DF" unicode="&#x1df;" horiz-adv-x="586" 
d="M490 768h-249l15 76h249zM348 0l12 62c-42 -47 -92 -70 -149 -70c-121 0 -184 84 -184 205c0 88 24 162 72 223s115 92 201 92c65 0 121 -35 134 -68l11 60h85l-97 -504h-85zM235 68c76 0 134 60 157 129c11 35 17 70 17 107c0 81 -41 132 -116 132
c-57 0 -100 -22 -131 -66s-46 -94 -46 -150c0 -93 44 -152 119 -152zM271 708c33 0 57 -25 57 -57s-24 -56 -57 -56c-31 0 -56 24 -56 56s25 57 56 57zM437 708c33 0 57 -25 57 -57s-24 -56 -57 -56c-31 0 -56 24 -56 56s25 57 56 57z" />
    <glyph glyph-name="uni01E2" unicode="&#x1e2;" horiz-adv-x="836" 
d="M751 768h-249l15 76h249zM-58 0l444 700h455l-17 -84h-307l-39 -201h250l-16 -84h-250l-48 -247h317l-17 -84h-406l37 187h-187l-117 -187h-99zM422 585h-16l-196 -314h151z" />
    <glyph glyph-name="uni01E3" unicode="&#x1e3;" horiz-adv-x="891" 
d="M610 572h-249l15 76h249zM827 273l-8 -39h-374c-2 -13 -3 -25 -3 -36c0 -80 42 -130 118 -130c71 0 114 32 157 99l72 -35c-67 -99 -137 -140 -244 -140c-80 0 -142 41 -171 109c-45 -73 -108 -109 -187 -109c-101 0 -160 56 -160 139c0 124 91 179 224 179h122l5 22
c1 7 2 15 2 24c0 53 -31 80 -93 80c-53 0 -90 -27 -113 -81l-76 19c32 87 105 138 204 138c69 0 125 -30 149 -83c55 55 120 83 195 83c115 0 186 -74 186 -189c0 -14 -2 -31 -5 -50zM197 68c73 0 137 47 157 154l2 12h-123c-69 0 -117 -30 -117 -91c0 -47 32 -75 81 -75z
M631 436c-73 0 -137 -51 -166 -126h278c0 84 -37 126 -112 126z" />
    <glyph glyph-name="Gcaron" unicode="&#x1e6;" horiz-adv-x="698" 
d="M539 932h98l-179 -164h-31l-124 164h89l61 -80zM527 269h-144l16 84h236l-69 -353h-76l9 96c-56 -73 -118 -104 -213 -104c-69 0 -127 24 -175 73s-72 120 -72 212c0 76 15 146 44 211c30 65 75 117 135 158s129 62 208 62c67 0 121 -20 162 -59c42 -39 65 -90 68 -152
l-88 -23c-13 100 -66 150 -158 150c-82 0 -149 -33 -201 -99s-78 -144 -78 -235c0 -139 61 -214 172 -214c109 0 191 74 224 193z" />
    <glyph glyph-name="gcaron" unicode="&#x1e7;" horiz-adv-x="510" 
d="M587 761h98l-179 -164h-31l-124 164h89l61 -80zM84 311c0 59 19 107 56 144c38 38 88 57 149 57c33 0 64 -8 91 -23l94 48l30 -66l-75 -38c7 -17 11 -38 11 -64c0 -57 -20 -103 -59 -140s-88 -55 -147 -55c-29 0 -56 7 -81 20c-31 -12 -47 -30 -47 -55
c0 -21 17 -38 45 -38h115c94 0 141 -40 141 -121c0 -63 -24 -110 -73 -143c-48 -33 -107 -49 -177 -49c-52 0 -95 13 -129 40c-34 26 -51 61 -51 104c0 49 22 92 66 127c-14 15 -21 36 -21 63c0 47 28 84 84 113c-15 22 -22 47 -22 76zM241 29h-97c-11 0 -23 1 -36 2
c-31 -16 -46 -43 -46 -81c0 -52 34 -90 110 -90c39 0 73 8 102 25s44 43 44 80c0 43 -26 64 -77 64zM279 440c-63 0 -111 -47 -111 -114c0 -52 30 -80 77 -80c63 0 111 44 111 111c0 55 -30 83 -77 83z" />
    <glyph glyph-name="uni01E8" unicode="&#x1e8;" horiz-adv-x="597" 
d="M513 932h98l-179 -164h-31l-124 164h89l61 -80zM283 382l224 -382h-108l-206 353l-69 -353h-89l137 700h89l-55 -281l298 281h120z" />
    <glyph glyph-name="uni01E9" unicode="&#x1e9;" horiz-adv-x="508" 
d="M323 932h98l-179 -164h-31l-124 164h89l61 -80zM30 0l137 708h85l-80 -415l216 211h115l-249 -236l171 -268h-103l-158 253l-49 -253h-85z" />
    <glyph glyph-name="uni01EA" unicode="&#x1ea;" horiz-adv-x="713" 
d="M223 -2h62c-49 -33 -73 -62 -73 -85c0 -17 8 -25 25 -25c21 0 35 10 63 41l36 -35c-41 -51 -75 -71 -122 -71c-43 0 -71 26 -71 67c0 38 27 74 80 108zM425 708c73 0 133 -25 178 -76c46 -50 69 -119 69 -207c0 -146 -50 -262 -151 -348c-66 -57 -144 -85 -235 -85
c-73 0 -133 25 -179 75c-45 51 -68 120 -68 208c0 146 50 262 151 348c66 57 144 85 235 85zM410 624c-69 0 -130 -27 -181 -82c-65 -69 -98 -156 -98 -259c0 -133 59 -207 170 -207c69 0 130 27 181 82c65 69 98 156 98 259c0 133 -59 207 -170 207z" />
    <glyph glyph-name="uni01EB" unicode="&#x1eb;" horiz-adv-x="573" 
d="M163 -2h62c-49 -33 -73 -62 -73 -85c0 -17 8 -25 25 -25c21 0 35 10 63 41l36 -35c-41 -51 -75 -71 -122 -71c-43 0 -71 26 -71 67c0 38 27 74 80 108zM27 204c0 83 23 153 69 210c53 65 124 98 213 98c124 0 199 -79 199 -212c0 -83 -23 -153 -69 -210
c-53 -65 -124 -98 -213 -98c-124 0 -199 79 -199 212zM301 436c-56 0 -103 -24 -140 -71c-30 -38 -45 -88 -45 -149c0 -93 41 -148 118 -148c56 0 103 24 140 71c30 38 45 88 45 149c0 93 -41 148 -118 148z" />
    <glyph glyph-name="uni01EC" unicode="&#x1ec;" horiz-adv-x="713" 
d="M561 768h-249l15 76h249zM223 -2h62c-49 -33 -73 -62 -73 -85c0 -17 8 -25 25 -25c21 0 35 10 63 41l36 -35c-41 -51 -75 -71 -122 -71c-43 0 -71 26 -71 67c0 38 27 74 80 108zM425 708c73 0 133 -25 178 -76c46 -50 69 -119 69 -207c0 -146 -50 -262 -151 -348
c-66 -57 -144 -85 -235 -85c-73 0 -133 25 -179 75c-45 51 -68 120 -68 208c0 146 50 262 151 348c66 57 144 85 235 85zM410 624c-69 0 -130 -27 -181 -82c-65 -69 -98 -156 -98 -259c0 -133 59 -207 170 -207c69 0 130 27 181 82c65 69 98 156 98 259
c0 133 -59 207 -170 207z" />
    <glyph glyph-name="uni01ED" unicode="&#x1ed;" horiz-adv-x="573" 
d="M445 572h-249l15 76h249zM163 -2h62c-49 -33 -73 -62 -73 -85c0 -17 8 -25 25 -25c21 0 35 10 63 41l36 -35c-41 -51 -75 -71 -122 -71c-43 0 -71 26 -71 67c0 38 27 74 80 108zM27 204c0 83 23 153 69 210c53 65 124 98 213 98c124 0 199 -79 199 -212
c0 -83 -23 -153 -69 -210c-53 -65 -124 -98 -213 -98c-124 0 -199 79 -199 212zM301 436c-56 0 -103 -24 -140 -71c-30 -38 -45 -88 -45 -149c0 -93 41 -148 118 -148c56 0 103 24 140 71c30 38 45 88 45 149c0 93 -41 148 -118 148z" />
    <glyph glyph-name="uni01F0" unicode="&#x1f0;" horiz-adv-x="276" 
d="M308 932h98l-179 -164h-31l-124 164h89l61 -80zM-80 -212l-8 82c68 17 102 41 115 112l101 522h85l-103 -530c-23 -117 -78 -169 -190 -186zM132 644c0 36 27 64 63 64s63 -28 63 -64c0 -35 -27 -62 -63 -62s-63 27 -63 62z" />
    <glyph glyph-name="uni01F1" unicode="&#x1f1;" horiz-adv-x="1219" 
d="M1080 616h-310l17 84h435l-9 -42l-424 -574h331l-17 -84h-455l8 42zM35 0l137 700h180c168 0 276 -98 276 -279c0 -119 -37 -219 -112 -300c-74 -81 -170 -121 -287 -121h-194zM333 616h-89l-103 -532h89c92 0 165 31 220 93c55 63 83 141 83 235c0 136 -71 204 -200 204
z" />
    <glyph glyph-name="uni01F2" unicode="&#x1f2;" horiz-adv-x="1137" 
d="M978 428h-227l14 76h347l-7 -36l-310 -392h248l-14 -76h-365l7 36zM35 0l137 700h180c168 0 276 -98 276 -279c0 -119 -37 -219 -112 -300c-74 -81 -170 -121 -287 -121h-194zM333 616h-89l-103 -532h89c92 0 165 31 220 93c55 63 83 141 83 235c0 136 -71 204 -200 204z
" />
    <glyph glyph-name="uni01F3" unicode="&#x1f3;" horiz-adv-x="1080" 
d="M921 428h-227l14 76h347l-7 -36l-310 -392h248l-14 -76h-365l7 36zM302 512c63 0 116 -28 139 -68l51 264h85l-138 -708h-85l13 62c-43 -47 -96 -70 -158 -70c-116 0 -182 75 -182 194c0 89 25 166 75 230s117 96 200 96zM116 208c0 -85 41 -140 116 -140
c39 0 73 13 102 39c59 53 82 127 82 199c0 85 -48 130 -121 130c-38 0 -71 -12 -100 -37c-56 -49 -79 -120 -79 -191z" />
    <glyph glyph-name="uni01F4" unicode="&#x1f4;" horiz-adv-x="698" 
d="M474 768h-72l97 144h123zM527 269h-144l16 84h236l-69 -353h-76l9 96c-56 -73 -118 -104 -213 -104c-69 0 -127 24 -175 73s-72 120 -72 212c0 76 15 146 44 211c30 65 75 117 135 158s129 62 208 62c67 0 121 -20 162 -59c42 -39 65 -90 68 -152l-88 -23
c-13 100 -66 150 -158 150c-82 0 -149 -33 -201 -99s-78 -144 -78 -235c0 -139 61 -214 172 -214c109 0 191 74 224 193z" />
    <glyph glyph-name="uni01F5" unicode="&#x1f5;" horiz-adv-x="510" 
d="M522 597h-72l97 144h123zM84 311c0 59 19 107 56 144c38 38 88 57 149 57c33 0 64 -8 91 -23l94 48l30 -66l-75 -38c7 -17 11 -38 11 -64c0 -57 -20 -103 -59 -140s-88 -55 -147 -55c-29 0 -56 7 -81 20c-31 -12 -47 -30 -47 -55c0 -21 17 -38 45 -38h115
c94 0 141 -40 141 -121c0 -63 -24 -110 -73 -143c-48 -33 -107 -49 -177 -49c-52 0 -95 13 -129 40c-34 26 -51 61 -51 104c0 49 22 92 66 127c-14 15 -21 36 -21 63c0 47 28 84 84 113c-15 22 -22 47 -22 76zM241 29h-97c-11 0 -23 1 -36 2c-31 -16 -46 -43 -46 -81
c0 -52 34 -90 110 -90c39 0 73 8 102 25s44 43 44 80c0 43 -26 64 -77 64zM279 440c-63 0 -111 -47 -111 -114c0 -52 30 -80 77 -80c63 0 111 44 111 111c0 55 -30 83 -77 83z" />
    <glyph glyph-name="uni01F8" unicode="&#x1f8;" horiz-adv-x="706" 
d="M300 912h121l48 -144h-68zM475 153l107 547h89l-137 -700h-99l-205 545l-106 -545h-89l137 700h99z" />
    <glyph glyph-name="uni01F9" unicode="&#x1f9;" 
d="M205 716h121l48 -144h-68zM496 355l-69 -355h-85l64 333c3 16 4 28 4 35c0 45 -22 68 -67 68c-36 0 -73 -21 -111 -63s-63 -96 -76 -162l-41 -211h-85l98 504h85l-18 -93c51 67 111 101 182 101c77 0 122 -41 122 -110c0 -16 -1 -32 -3 -47z" />
    <glyph glyph-name="Aringacute" unicode="&#x1fa;" horiz-adv-x="574" 
d="M436 1009h-72l97 144h123zM-57 0l372 700h85l106 -700h-89l-25 187h-261l-99 -187h-89zM380 271l-45 315l-160 -315h205zM289 849c0 56 43 100 99 100c57 0 99 -44 99 -100c0 -55 -42 -96 -99 -96c-56 0 -99 41 -99 96zM345 850c-5 -57 91 -57 86 0c5 60 -91 60 -86 0z
" />
    <glyph glyph-name="aringacute" unicode="&#x1fb;" horiz-adv-x="586" 
d="M400 813h-72l97 144h123zM348 0l12 62c-42 -47 -92 -70 -149 -70c-121 0 -184 84 -184 205c0 88 24 162 72 223s115 92 201 92c65 0 121 -35 134 -68l11 60h85l-97 -504h-85zM235 68c76 0 134 60 157 129c11 35 17 70 17 107c0 81 -41 132 -116 132
c-57 0 -100 -22 -131 -66s-46 -94 -46 -150c0 -93 44 -152 119 -152zM253 653c0 56 43 100 99 100c57 0 99 -44 99 -100c0 -55 -42 -96 -99 -96c-56 0 -99 41 -99 96zM309 654c-5 -57 91 -57 86 0c5 60 -91 60 -86 0z" />
    <glyph glyph-name="AEacute" unicode="&#x1fc;" horiz-adv-x="836" 
d="M663 768h-72l97 144h123zM-58 0l444 700h455l-17 -84h-307l-39 -201h250l-16 -84h-250l-48 -247h317l-17 -84h-406l37 187h-187l-117 -187h-99zM422 585h-16l-196 -314h151z" />
    <glyph glyph-name="aeacute" unicode="&#x1fd;" horiz-adv-x="891" 
d="M522 572h-72l97 144h123zM827 273l-8 -39h-374c-2 -13 -3 -25 -3 -36c0 -80 42 -130 118 -130c71 0 114 32 157 99l72 -35c-67 -99 -137 -140 -244 -140c-80 0 -142 41 -171 109c-45 -73 -108 -109 -187 -109c-101 0 -160 56 -160 139c0 124 91 179 224 179h122l5 22
c1 7 2 15 2 24c0 53 -31 80 -93 80c-53 0 -90 -27 -113 -81l-76 19c32 87 105 138 204 138c69 0 125 -30 149 -83c55 55 120 83 195 83c115 0 186 -74 186 -189c0 -14 -2 -31 -5 -50zM197 68c73 0 137 47 157 154l2 12h-123c-69 0 -117 -30 -117 -91c0 -47 32 -75 81 -75z
M631 436c-73 0 -137 -51 -166 -126h278c0 84 -37 126 -112 126z" />
    <glyph glyph-name="Oslashacute" unicode="&#x1fe;" horiz-adv-x="713" 
d="M479 789h-72l97 144h123zM426 708c67 0 123 -21 167 -63l81 84l50 -48l-89 -92c25 -47 38 -101 38 -164c0 -146 -50 -262 -151 -348c-66 -57 -144 -85 -235 -85c-67 0 -123 21 -167 63l-81 -84l-50 48l88 92c-25 45 -37 100 -37 164c0 146 50 262 151 348
c66 57 144 85 235 85zM581 417c0 35 -5 69 -15 100l-383 -397c29 -29 69 -44 119 -44c69 0 130 27 181 82c65 69 98 156 98 259zM411 624c-69 0 -130 -27 -181 -82c-65 -69 -98 -156 -98 -259c0 -39 5 -73 15 -101l382 397c-28 30 -67 45 -118 45z" />
    <glyph glyph-name="oslashacute" unicode="&#x1ff;" horiz-adv-x="573" 
d="M375 609h-72l97 144h123zM27 204c0 83 23 153 69 210c53 65 124 98 213 98c51 0 93 -13 127 -39l74 76l51 -48l-80 -82c18 -32 27 -72 27 -119c0 -83 -23 -153 -68 -210c-53 -65 -124 -98 -214 -98c-51 0 -92 13 -125 39l-74 -76l-51 48l79 81c-19 33 -28 73 -28 120z
M301 436c-56 0 -103 -24 -140 -71c-30 -38 -45 -88 -45 -149c0 -31 2 -52 6 -64l254 259c-19 17 -44 25 -75 25zM419 288c0 27 -2 47 -6 62l-253 -259c19 -15 44 -23 74 -23c56 0 103 24 140 71c30 38 45 88 45 149z" />
    <glyph glyph-name="uni0202" unicode="&#x202;" horiz-adv-x="574" 
d="M-57 0l372 700h85l106 -700h-89l-25 187h-261l-99 -187h-89zM380 271l-45 315l-160 -315h205z" />
    <glyph glyph-name="uni0203" unicode="&#x203;" horiz-adv-x="586" 
d="M530 504l-97 -504h-85l12 62c-42 -47 -92 -70 -149 -70c-121 0 -184 84 -184 205c0 88 24 162 72 223s115 92 201 92c65 0 121 -35 134 -68l11 60h85zM235 68c38 0 71 13 98 38c56 52 76 125 76 198c0 81 -41 132 -116 132c-57 0 -100 -22 -131 -66s-46 -94 -46 -150
c0 -93 44 -152 119 -152z" />
    <glyph glyph-name="uni0206" unicode="&#x206;" horiz-adv-x="563" 
d="M35 0l137 700h396l-17 -84h-307l-39 -201h250l-16 -84h-250l-48 -247h317l-17 -84h-406z" />
    <glyph glyph-name="uni0207" unicode="&#x207;" horiz-adv-x="562" 
d="M498 273l-8 -39h-373c-2 -13 -3 -25 -3 -36c0 -80 41 -130 117 -130c71 0 114 32 157 99l72 -35c-67 -99 -137 -140 -244 -140c-58 0 -104 19 -139 58s-52 91 -52 154c0 79 28 150 84 213s125 95 208 95c115 0 186 -74 186 -189c0 -14 -2 -31 -5 -50zM302 436
c-73 0 -137 -51 -166 -126h278c0 84 -37 126 -112 126z" />
    <glyph glyph-name="uni020A" unicode="&#x20a;" horiz-adv-x="296" 
d="M35 0l137 700h89l-137 -700h-89z" />
    <glyph glyph-name="uni020B" unicode="&#x20b;" horiz-adv-x="276" 
d="M30 0l98 504h85l-98 -504h-85z" />
    <glyph glyph-name="uni020E" unicode="&#x20e;" horiz-adv-x="713" 
d="M425 708c73 0 133 -25 178 -76c46 -50 69 -119 69 -207c0 -146 -50 -262 -151 -348c-66 -57 -144 -85 -235 -85c-73 0 -133 25 -179 75c-45 51 -68 120 -68 208c0 146 50 262 151 348c66 57 144 85 235 85zM410 624c-69 0 -130 -27 -181 -82c-65 -69 -98 -156 -98 -259
c0 -133 59 -207 170 -207c69 0 130 27 181 82c65 69 98 156 98 259c0 133 -59 207 -170 207z" />
    <glyph glyph-name="uni020F" unicode="&#x20f;" horiz-adv-x="573" 
d="M27 204c0 83 23 153 69 210c53 65 124 98 213 98c124 0 199 -79 199 -212c0 -83 -23 -153 -69 -210c-53 -65 -124 -98 -213 -98c-124 0 -199 79 -199 212zM301 436c-56 0 -103 -24 -140 -71c-30 -38 -45 -88 -45 -149c0 -93 41 -148 118 -148c56 0 103 24 140 71
c30 38 45 88 45 149c0 93 -41 148 -118 148z" />
    <glyph glyph-name="uni0212" unicode="&#x212;" horiz-adv-x="596" 
d="M530 0h-99l-139 330h-103l-65 -330h-89l137 700h222c111 0 178 -60 178 -157c0 -116 -70 -192 -185 -207zM380 616h-136l-39 -202h139c85 0 136 38 136 113c0 59 -33 89 -100 89z" />
    <glyph glyph-name="uni0213" unicode="&#x213;" horiz-adv-x="437" 
d="M428 497l-31 -75c-17 9 -34 14 -53 14c-37 0 -74 -17 -110 -51c-35 -34 -60 -88 -75 -162l-44 -223h-85l98 504h85l-17 -86c40 63 94 94 163 94c30 0 53 -5 69 -15z" />
    <glyph glyph-name="uni0216" unicode="&#x216;" horiz-adv-x="672" 
d="M76 238l89 462h89l-91 -468c-3 -17 -4 -31 -4 -40c0 -77 41 -116 122 -116c101 0 167 57 186 156l91 468h89l-89 -462c-31 -164 -127 -246 -288 -246c-60 0 -108 16 -145 49s-55 77 -55 130c0 23 2 46 6 67z" />
    <glyph glyph-name="uni0217" unicode="&#x217;" 
d="M55 149l69 355h85l-64 -333c-3 -16 -4 -28 -4 -35c0 -45 22 -68 67 -68c36 0 73 21 111 63s63 96 76 162l41 211h85l-98 -504h-85l18 93c-51 -67 -111 -101 -182 -101c-77 0 -122 41 -122 110c0 16 1 32 3 47z" />
    <glyph glyph-name="Scommaaccent" unicode="&#x218;" horiz-adv-x="523" 
d="M132 -285h-63l102 217h117zM487 584l-76 -42c-20 55 -52 82 -96 82c-61 0 -97 -37 -97 -97c0 -57 32 -84 111 -125c47 -24 69 -39 96 -67s37 -63 37 -112c0 -71 -22 -126 -66 -166c-53 -49 -105 -65 -185 -65c-50 0 -94 19 -132 56c-38 38 -57 83 -57 136l80 43
c7 -89 49 -151 128 -151c80 0 140 47 140 131c0 64 -31 91 -107 128c-91 45 -137 104 -137 179c0 123 84 194 205 194c80 0 139 -56 156 -124z" />
    <glyph glyph-name="scommaaccent" unicode="&#x219;" horiz-adv-x="460" 
d="M115 -285h-63l102 217h117zM259 512c63 0 118 -32 145 -84l-66 -49c-25 38 -55 57 -89 57c-39 0 -68 -24 -68 -63c0 -35 25 -55 69 -75c37 -16 55 -25 83 -48c29 -21 43 -53 43 -92c0 -103 -75 -166 -182 -166c-49 0 -90 14 -122 42c-32 29 -51 62 -56 101l74 36
c14 -69 52 -103 114 -103c51 0 83 30 83 74c0 25 -6 42 -26 57s-30 19 -66 35c-66 29 -99 74 -99 134c0 89 64 144 163 144z" />
    <glyph glyph-name="uni021A" unicode="&#x21a;" horiz-adv-x="507" 
d="M103 -277h-63l102 217h117zM258 616h-197l17 84h483l-17 -84h-197l-120 -616h-89z" />
    <glyph glyph-name="uni021B" unicode="&#x21b;" horiz-adv-x="350" 
d="M98 -285h-63l102 217h117zM116 428h-87l14 76h87l30 151l94 53l-40 -204h127l-14 -76h-127l-52 -268c-3 -17 -5 -29 -5 -36c0 -37 18 -56 54 -56c21 0 41 5 60 16l6 -73c-25 -13 -53 -19 -86 -19c-76 0 -119 41 -119 117c0 11 2 30 7 58z" />
    <glyph glyph-name="uni021E" unicode="&#x21e;" horiz-adv-x="695" 
d="M531 932h98l-179 -164h-31l-124 164h89l61 -80zM515 414l56 286h89l-137 -700h-89l65 330h-310l-65 -330h-89l137 700h89l-56 -286h310z" />
    <glyph glyph-name="uni021F" unicode="&#x21f;" horiz-adv-x="584" 
d="M483 932h98l-179 -164h-31l-124 164h89l61 -80zM502 350l-68 -350h-85l64 333c2 12 3 24 3 36c0 45 -23 67 -69 67c-38 0 -76 -21 -115 -62c-38 -41 -63 -94 -76 -160l-41 -214h-85l137 708h85l-58 -298c49 68 113 102 190 102c75 0 123 -40 123 -112
c0 -15 -2 -31 -5 -50z" />
    <glyph glyph-name="uni0226" unicode="&#x226;" horiz-adv-x="574" 
d="M320 830c0 36 28 64 63 64c36 0 63 -28 63 -64c0 -35 -27 -62 -63 -62c-35 0 -63 27 -63 62zM-57 0l372 700h85l106 -700h-89l-25 187h-261l-99 -187h-89zM380 271l-45 315l-160 -315h205z" />
    <glyph glyph-name="uni0227" unicode="&#x227;" horiz-adv-x="586" 
d="M261 634c0 36 28 64 63 64c36 0 63 -28 63 -64c0 -35 -27 -62 -63 -62c-35 0 -63 27 -63 62zM530 504l-97 -504h-85l12 62c-42 -47 -92 -70 -149 -70c-121 0 -184 84 -184 205c0 88 24 162 72 223s115 92 201 92c65 0 121 -35 134 -68l11 60h85zM235 68c38 0 71 13 98 38
c56 52 76 125 76 198c0 81 -41 132 -116 132c-57 0 -100 -22 -131 -66s-46 -94 -46 -150c0 -93 44 -152 119 -152z" />
    <glyph glyph-name="uni0228" unicode="&#x228;" horiz-adv-x="563" 
d="M169 6h74l-111 -175l-89 45zM35 0l137 700h396l-17 -84h-307l-39 -201h250l-16 -84h-250l-48 -247h317l-17 -84h-406z" />
    <glyph glyph-name="uni0229" unicode="&#x229;" horiz-adv-x="562" 
d="M147 -2h74l-111 -175l-89 45zM498 273l-8 -39h-373c-2 -13 -3 -25 -3 -36c0 -80 41 -130 117 -130c71 0 114 32 157 99l72 -35c-67 -99 -137 -140 -244 -140c-58 0 -104 19 -139 58s-52 91 -52 154c0 79 28 150 84 213s125 95 208 95c115 0 186 -74 186 -189
c0 -14 -2 -31 -5 -50zM302 436c-73 0 -137 -51 -166 -126h278c0 84 -37 126 -112 126z" />
    <glyph glyph-name="uni022A" unicode="&#x22a;" horiz-adv-x="713" 
d="M580 964h-249l15 76h249zM425 708c73 0 133 -25 178 -76c46 -50 69 -119 69 -207c0 -146 -50 -262 -151 -348c-66 -57 -144 -85 -235 -85c-73 0 -133 25 -179 75c-45 51 -68 120 -68 208c0 146 50 262 151 348c66 57 144 85 235 85zM410 624c-69 0 -130 -27 -181 -82
c-65 -69 -98 -156 -98 -259c0 -133 59 -207 170 -207c69 0 130 27 181 82c65 69 98 156 98 259c0 133 -59 207 -170 207zM361 904c33 0 57 -25 57 -57s-24 -56 -57 -56c-31 0 -56 24 -56 56s25 57 56 57zM527 904c33 0 57 -25 57 -57s-24 -56 -57 -56c-31 0 -56 24 -56 56
s25 57 56 57z" />
    <glyph glyph-name="uni022B" unicode="&#x22b;" horiz-adv-x="573" 
d="M482 768h-249l15 76h249zM27 204c0 83 23 153 69 210c53 65 124 98 213 98c124 0 199 -79 199 -212c0 -83 -23 -153 -69 -210c-53 -65 -124 -98 -213 -98c-124 0 -199 79 -199 212zM301 436c-56 0 -103 -24 -140 -71c-30 -38 -45 -88 -45 -149c0 -93 41 -148 118 -148
c56 0 103 24 140 71c30 38 45 88 45 149c0 93 -41 148 -118 148zM263 708c33 0 57 -25 57 -57s-24 -56 -57 -56c-31 0 -56 24 -56 56s25 57 56 57zM429 708c33 0 57 -25 57 -57s-24 -56 -57 -56c-31 0 -56 24 -56 56s25 57 56 57z" />
    <glyph glyph-name="uni022C" unicode="&#x22c;" horiz-adv-x="713" 
d="M524 956h-249l15 76h249zM425 708c73 0 133 -25 178 -76c46 -50 69 -119 69 -207c0 -146 -50 -262 -151 -348c-66 -57 -144 -85 -235 -85c-73 0 -133 25 -179 75c-45 51 -68 120 -68 208c0 146 50 262 151 348c66 57 144 85 235 85zM410 624c-69 0 -130 -27 -181 -82
c-65 -69 -98 -156 -98 -259c0 -133 59 -207 170 -207c69 0 130 27 181 82c65 69 98 156 98 259c0 133 -59 207 -170 207zM308 781l-41 42c36 49 76 73 121 73c24 0 46 -7 66 -20c21 -13 39 -20 54 -20c25 0 50 12 73 35l41 -43c-36 -48 -76 -72 -121 -72c-24 0 -46 7 -67 20
c-20 13 -38 20 -53 20c-25 0 -50 -12 -73 -35z" />
    <glyph glyph-name="uni022D" unicode="&#x22d;" horiz-adv-x="573" 
d="M416 760h-249l15 76h249zM27 204c0 83 23 153 69 210c53 65 124 98 213 98c124 0 199 -79 199 -212c0 -83 -23 -153 -69 -210c-53 -65 -124 -98 -213 -98c-124 0 -199 79 -199 212zM301 436c-56 0 -103 -24 -140 -71c-30 -38 -45 -88 -45 -149c0 -93 41 -148 118 -148
c56 0 103 24 140 71c30 38 45 88 45 149c0 93 -41 148 -118 148zM200 585l-41 42c36 49 76 73 121 73c24 0 46 -7 66 -20c21 -13 39 -20 54 -20c25 0 50 12 73 35l41 -43c-36 -48 -76 -72 -121 -72c-24 0 -46 7 -67 20c-20 13 -38 20 -53 20c-25 0 -50 -12 -73 -35z" />
    <glyph glyph-name="uni022E" unicode="&#x22e;" horiz-adv-x="713" 
d="M386 830c0 36 28 64 63 64c36 0 63 -28 63 -64c0 -35 -27 -62 -63 -62c-35 0 -63 27 -63 62zM425 708c73 0 133 -25 178 -76c46 -50 69 -119 69 -207c0 -146 -50 -262 -151 -348c-66 -57 -144 -85 -235 -85c-73 0 -133 25 -179 75c-45 51 -68 120 -68 208
c0 146 50 262 151 348c66 57 144 85 235 85zM410 624c-69 0 -130 -27 -181 -82c-65 -69 -98 -156 -98 -259c0 -133 59 -207 170 -207c69 0 130 27 181 82c65 69 98 156 98 259c0 133 -59 207 -170 207z" />
    <glyph glyph-name="uni022F" unicode="&#x22f;" horiz-adv-x="573" 
d="M270 634c0 36 28 64 63 64c36 0 63 -28 63 -64c0 -35 -27 -62 -63 -62c-35 0 -63 27 -63 62zM27 204c0 83 23 153 69 210c53 65 124 98 213 98c124 0 199 -79 199 -212c0 -83 -23 -153 -69 -210c-53 -65 -124 -98 -213 -98c-124 0 -199 79 -199 212zM301 436
c-56 0 -103 -24 -140 -71c-30 -38 -45 -88 -45 -149c0 -93 41 -148 118 -148c56 0 103 24 140 71c30 38 45 88 45 149c0 93 -41 148 -118 148z" />
    <glyph glyph-name="uni0230" unicode="&#x230;" horiz-adv-x="713" 
d="M585 954h-249l15 76h249zM386 830c0 36 28 64 63 64c36 0 63 -28 63 -64c0 -35 -27 -62 -63 -62c-35 0 -63 27 -63 62zM425 708c73 0 133 -25 178 -76c46 -50 69 -119 69 -207c0 -146 -50 -262 -151 -348c-66 -57 -144 -85 -235 -85c-73 0 -133 25 -179 75
c-45 51 -68 120 -68 208c0 146 50 262 151 348c66 57 144 85 235 85zM410 624c-69 0 -130 -27 -181 -82c-65 -69 -98 -156 -98 -259c0 -133 59 -207 170 -207c69 0 130 27 181 82c65 69 98 156 98 259c0 133 -59 207 -170 207z" />
    <glyph glyph-name="circumflex" unicode="&#x2c6;" horiz-adv-x="396" 
d="M166 566h-98l179 164h31l124 -164h-89l-61 80z" />
    <glyph glyph-name="caron" unicode="&#x2c7;" horiz-adv-x="373" 
d="M320 730h98l-179 -164h-31l-124 164h89l61 -80z" />
    <glyph glyph-name="breve" unicode="&#x2d8;" horiz-adv-x="245" 
d="M227 700h67c-17 -69 -67 -109 -132 -109c-53 0 -92 35 -92 87c0 5 1 13 2 22h67c-1 -3 -1 -6 -1 -10c0 -21 15 -35 36 -35c29 0 47 15 53 45z" />
    <glyph glyph-name="dotaccent" unicode="&#x2d9;" horiz-adv-x="276" 
d="M132 644c0 36 28 64 63 64c36 0 63 -28 63 -64c0 -35 -27 -62 -63 -62c-35 0 -63 27 -63 62z" />
    <glyph glyph-name="ring" unicode="&#x2da;" horiz-adv-x="209" 
d="M58 653c0 56 43 100 99 100c57 0 99 -44 99 -100c0 -55 -42 -96 -99 -96c-56 0 -99 41 -99 96zM114 654c-5 -57 91 -57 86 0c5 60 -91 60 -86 0z" />
    <glyph glyph-name="ogonek" unicode="&#x2db;" horiz-adv-x="225" 
d="M44 -60h62c-49 -33 -73 -62 -73 -85c0 -17 8 -25 25 -25c21 0 35 10 63 41l36 -35c-41 -51 -75 -71 -122 -71c-43 0 -71 26 -71 67c0 38 27 74 80 108z" />
    <glyph glyph-name="tilde" unicode="&#x2dc;" horiz-adv-x="387" 
d="M108 585l-41 42c36 49 76 73 121 73c24 0 46 -7 66 -20c21 -13 39 -20 54 -20c25 0 50 12 73 35l41 -43c-36 -48 -76 -72 -121 -72c-24 0 -46 7 -67 20c-20 13 -38 20 -53 20c-25 0 -50 -12 -73 -35z" />
    <glyph glyph-name="hungarumlaut" unicode="&#x2dd;" horiz-adv-x="395" 
d="M120 560h-72l97 144h123zM300 560h-72l97 144h123z" />
    <glyph glyph-name="uni2000" unicode="&#x2000;" horiz-adv-x="500" 
 />
    <glyph glyph-name="uni2001" unicode="&#x2001;" horiz-adv-x="1000" 
 />
    <glyph glyph-name="uni2002" unicode="&#x2002;" horiz-adv-x="500" 
 />
    <glyph glyph-name="uni2003" unicode="&#x2003;" horiz-adv-x="1000" 
 />
    <glyph glyph-name="uni2004" unicode="&#x2004;" horiz-adv-x="333" 
 />
    <glyph glyph-name="uni2005" unicode="&#x2005;" horiz-adv-x="250" 
 />
    <glyph glyph-name="uni2006" unicode="&#x2006;" horiz-adv-x="166" 
 />
    <glyph glyph-name="uni2007" unicode="&#x2007;" horiz-adv-x="582" 
 />
    <glyph glyph-name="uni2008" unicode="&#x2008;" horiz-adv-x="275" 
 />
    <glyph glyph-name="uni2009" unicode="&#x2009;" horiz-adv-x="100" 
 />
    <glyph glyph-name="uni200A" unicode="&#x200a;" horiz-adv-x="10" 
 />
    <glyph glyph-name="uni200B" unicode="&#x200b;" horiz-adv-x="0" 
 />
    <glyph glyph-name="afii61664" unicode="&#x200c;" horiz-adv-x="0" 
 />
    <glyph glyph-name="afii301" unicode="&#x200d;" horiz-adv-x="0" 
 />
    <glyph glyph-name="afii299" unicode="&#x200e;" horiz-adv-x="333" 
 />
    <glyph glyph-name="afii300" unicode="&#x200f;" horiz-adv-x="333" 
 />
    <glyph glyph-name="uni2010" unicode="&#x2010;" horiz-adv-x="479" 
d="M409 280h-354v74h354v-74z" />
    <glyph glyph-name="uni2011" unicode="&#x2011;" horiz-adv-x="479" 
d="M409 280h-354v74h354v-74z" />
    <glyph glyph-name="figuredash" unicode="&#x2012;" horiz-adv-x="582" 
d="M512 280h-457v74h457v-74z" />
    <glyph glyph-name="endash" unicode="&#x2013;" horiz-adv-x="545" 
d="M467 280h-412l15 74h412z" />
    <glyph glyph-name="emdash" unicode="&#x2014;" horiz-adv-x="736" 
d="M658 280h-603l15 74h603z" />
    <glyph glyph-name="afii00208" unicode="&#x2015;" horiz-adv-x="2000" 
d="M1930 280h-1875v74h1875v-74z" />
    <glyph glyph-name="uni2016" unicode="&#x2016;" horiz-adv-x="490" 
d="M345 -50v800h80v-800h-80zM100 -50v800h80v-800h-80z" />
    <glyph glyph-name="quoteleft" unicode="&#x2018;" horiz-adv-x="242" 
d="M71 708h119l29 -205h-61z" />
    <glyph glyph-name="quoteright" unicode="&#x2019;" horiz-adv-x="243" 
d="M140 503h-64l103 205h125z" />
    <glyph glyph-name="quotesinglbase" unicode="&#x201a;" horiz-adv-x="328" 
d="M59 -14h-64l103 205h125z" />
    <glyph glyph-name="quotedblleft" unicode="&#x201c;" horiz-adv-x="412" 
d="M71 708h119l29 -205h-61zM241 708h119l29 -205h-61z" />
    <glyph glyph-name="quotedblright" unicode="&#x201d;" horiz-adv-x="423" 
d="M140 503h-64l103 205h125zM320 503h-64l103 205h125z" />
    <glyph glyph-name="quotedblbase" unicode="&#x201e;" horiz-adv-x="508" 
d="M59 -14h-64l103 205h125zM239 -14h-64l103 205h125z" />
    <glyph glyph-name="dagger" unicode="&#x2020;" horiz-adv-x="454" 
d="M199 424h-129l14 80h130l48 246h81l-48 -246h130l-15 -80h-130l-92 -474h-81z" />
    <glyph glyph-name="daggerdbl" unicode="&#x2021;" horiz-adv-x="454" 
d="M199 424h-129l14 80h130l48 246h81l-48 -246h130l-15 -80h-130l-29 -148h130l-15 -80h-130l-48 -246h-81l48 246h-129l15 80h129z" />
    <glyph glyph-name="bullet" unicode="&#x2022;" horiz-adv-x="321" 
d="M97 275c-29 31 -29 80 0 109c31 31 80 31 109 0c31 -29 31 -78 0 -109c-29 -29 -78 -29 -109 0z" />
    <glyph glyph-name="onedotenleader" unicode="&#x2024;" horiz-adv-x="275" 
d="M25 59c0 35 27 63 63 63c35 0 63 -28 63 -63c0 -36 -28 -63 -63 -63c-36 0 -63 27 -63 63z" />
    <glyph glyph-name="twodotenleader" unicode="&#x2025;" horiz-adv-x="550" 
d="M300 59c0 35 27 63 63 63c35 0 63 -28 63 -63c0 -36 -28 -63 -63 -63c-36 0 -63 27 -63 63zM25 59c0 35 27 63 63 63c35 0 63 -28 63 -63c0 -36 -28 -63 -63 -63c-36 0 -63 27 -63 63z" />
    <glyph glyph-name="ellipsis" unicode="&#x2026;" horiz-adv-x="805" 
d="M25 59c0 35 27 63 63 63c35 0 63 -28 63 -63c0 -36 -28 -63 -63 -63c-36 0 -63 27 -63 63zM290 59c0 35 27 63 63 63c35 0 63 -28 63 -63c0 -36 -28 -63 -63 -63c-36 0 -63 27 -63 63zM555 59c0 35 27 63 63 63c35 0 63 -28 63 -63c0 -36 -28 -63 -63 -63
c-36 0 -63 27 -63 63z" />
    <glyph glyph-name="uni202A" unicode="&#x202a;" horiz-adv-x="0" 
 />
    <glyph glyph-name="uni202F" unicode="&#x202f;" horiz-adv-x="230" 
 />
    <glyph glyph-name="perthousand" unicode="&#x2030;" horiz-adv-x="1254" 
d="M77 526c0 55 19 99 58 134c35 32 79 48 131 48c75 0 134 -55 134 -138c0 -55 -19 -99 -58 -134c-35 -32 -79 -48 -131 -48c-75 0 -134 55 -134 138zM254 638c-28 0 -51 -9 -70 -26c-22 -20 -33 -45 -33 -76c0 -51 29 -78 72 -78c28 0 51 9 70 26c22 20 33 45 33 76
c0 51 -29 78 -72 78zM447 130c0 55 19 99 58 134c35 32 79 48 131 48c75 0 134 -55 134 -138c0 -55 -19 -99 -58 -134c-35 -32 -79 -48 -131 -48c-75 0 -134 55 -134 138zM624 242c-28 0 -51 -9 -70 -26c-22 -20 -33 -45 -33 -76c0 -51 29 -78 72 -78c28 0 51 9 70 26
c22 20 33 45 33 76c0 51 -29 78 -72 78zM847 130c0 55 19 99 58 134c35 32 79 48 131 48c75 0 134 -55 134 -138c0 -55 -19 -99 -58 -134c-35 -32 -79 -48 -131 -48c-75 0 -134 55 -134 138zM1024 242c-28 0 -51 -9 -70 -26c-22 -20 -33 -45 -33 -76c0 -51 29 -78 72 -78
c28 0 51 9 70 26c22 20 33 45 33 76c0 51 -29 78 -72 78zM71 15l676 718l46 -43l-677 -719z" />
    <glyph glyph-name="minute" unicode="&#x2032;" horiz-adv-x="290" 
d="M192 476h-62l20 232h112z" />
    <glyph glyph-name="second" unicode="&#x2033;" horiz-adv-x="580" 
d="M482 476h-62l20 232h112zM192 476h-62l20 232h112z" />
    <glyph glyph-name="uni2034" unicode="&#x2034;" horiz-adv-x="870" 
d="M772 476h-62l20 232h112zM482 476h-62l20 232h112zM192 476h-62l20 232h112z" />
    <glyph glyph-name="uni2035" unicode="&#x2035;" horiz-adv-x="206" 
d="M55 704h121l48 -144h-68z" />
    <glyph glyph-name="uni2036" unicode="&#x2036;" horiz-adv-x="412" 
d="M261 704h121l48 -144h-68zM55 704h121l48 -144h-68z" />
    <glyph glyph-name="uni2037" unicode="&#x2037;" horiz-adv-x="618" 
d="M467 704h121l48 -144h-68zM261 704h121l48 -144h-68zM55 704h121l48 -144h-68z" />
    <glyph glyph-name="guilsinglleft" unicode="&#x2039;" horiz-adv-x="386" 
d="M274 80l-239 199l13 62l316 204l-21 -107l-222 -135l170 -135z" />
    <glyph glyph-name="guilsinglright" unicode="&#x203a;" horiz-adv-x="386" 
d="M108 545l239 -199l-13 -62l-316 -204l21 107l222 135l-170 135z" />
    <glyph glyph-name="exclamdbl" unicode="&#x203c;" horiz-adv-x="694" 
d="M469 200l73 500h114l-121 -500h-66zM407 65c0 40 30 71 70 71s70 -31 70 -71c0 -39 -30 -68 -70 -68s-70 29 -70 68zM122 200l73 500h114l-121 -500h-66zM60 65c0 40 30 71 70 71s70 -31 70 -71c0 -39 -30 -68 -70 -68s-70 29 -70 68z" />
    <glyph glyph-name="uni203E" unicode="&#x203e;" horiz-adv-x="232" 
d="M136 60h-249l15 76h249z" />
    <glyph glyph-name="fraction" unicode="&#x2044;" horiz-adv-x="742" 
d="M10 15l676 718l46 -43l-677 -719z" />
    <glyph glyph-name="uni2047" unicode="&#x2047;" horiz-adv-x="890" 
d="M721 336l65 -29c-41 -80 -78 -106 -145 -106c-72 0 -120 47 -120 114c0 69 39 106 112 138l98 43c41 19 61 44 61 77c0 41 -31 65 -74 65c-51 0 -89 -32 -116 -97l-77 21c31 88 104 146 203 146c91 0 147 -50 147 -130c0 -67 -34 -104 -98 -135l-119 -57
c-40 -20 -61 -37 -61 -70c0 -28 20 -45 45 -45c35 0 54 21 79 65zM536 63c0 39 29 68 66 68c39 0 68 -29 68 -68c0 -37 -29 -66 -68 -66c-37 0 -66 29 -66 66zM276 336l65 -29c-41 -80 -78 -106 -145 -106c-72 0 -120 47 -120 114c0 69 39 106 112 138l98 43
c41 19 61 44 61 77c0 41 -31 65 -74 65c-51 0 -89 -32 -116 -97l-77 21c31 88 104 146 203 146c91 0 147 -50 147 -130c0 -67 -34 -104 -98 -135l-119 -57c-40 -20 -61 -37 -61 -70c0 -28 20 -45 45 -45c35 0 54 21 79 65zM91 63c0 39 29 68 66 68c39 0 68 -29 68 -68
c0 -37 -29 -66 -68 -66c-37 0 -66 29 -66 66z" />
    <glyph glyph-name="uni2048" unicode="&#x2048;" horiz-adv-x="792" 
d="M567 200l73 500h114l-121 -500h-66zM505 65c0 40 30 71 70 71s70 -31 70 -71c0 -39 -30 -68 -70 -68s-70 29 -70 68zM276 336l65 -29c-41 -80 -78 -106 -145 -106c-72 0 -120 47 -120 114c0 69 39 106 112 138l98 43c41 19 61 44 61 77c0 41 -31 65 -74 65
c-51 0 -89 -32 -116 -97l-77 21c31 88 104 146 203 146c91 0 147 -50 147 -130c0 -67 -34 -104 -98 -135l-119 -57c-40 -20 -61 -37 -61 -70c0 -28 20 -45 45 -45c35 0 54 21 79 65zM91 63c0 39 29 68 66 68c39 0 68 -29 68 -68c0 -37 -29 -66 -68 -66c-37 0 -66 29 -66 66z
" />
    <glyph glyph-name="uni2049" unicode="&#x2049;" horiz-adv-x="792" 
d="M623 336l65 -29c-41 -80 -78 -106 -145 -106c-72 0 -120 47 -120 114c0 69 39 106 112 138l98 43c41 19 61 44 61 77c0 41 -31 65 -74 65c-51 0 -89 -32 -116 -97l-77 21c31 88 104 146 203 146c91 0 147 -50 147 -130c0 -67 -34 -104 -98 -135l-119 -57
c-40 -20 -61 -37 -61 -70c0 -28 20 -45 45 -45c35 0 54 21 79 65zM438 63c0 39 29 68 66 68c39 0 68 -29 68 -68c0 -37 -29 -66 -68 -66c-37 0 -66 29 -66 66zM122 200l73 500h114l-121 -500h-66zM60 65c0 40 30 71 70 71s70 -31 70 -71c0 -39 -30 -68 -70 -68
s-70 29 -70 68z" />
    <glyph glyph-name="uni2057" unicode="&#x2057;" horiz-adv-x="1160" 
d="M1062 476h-62l20 232h112zM772 476h-62l20 232h112zM482 476h-62l20 232h112zM192 476h-62l20 232h112z" />
    <glyph glyph-name="uni205F" unicode="&#x205f;" horiz-adv-x="288" 
 />
    <glyph glyph-name="uni2060" unicode="&#x2060;" horiz-adv-x="0" 
 />
    <glyph glyph-name="uni20A8" unicode="&#x20a8;" horiz-adv-x="1056" 
d="M855 512c63 0 118 -32 145 -84l-66 -49c-25 38 -55 57 -89 57c-39 0 -68 -24 -68 -63c0 -35 25 -55 69 -75c37 -16 55 -25 83 -48c29 -21 43 -53 43 -92c0 -103 -75 -166 -182 -166c-49 0 -90 14 -122 42c-32 29 -51 62 -56 101l74 36c14 -69 52 -103 114 -103
c51 0 83 30 83 74c0 25 -6 42 -26 57s-30 19 -66 35c-66 29 -99 74 -99 134c0 89 64 144 163 144zM530 0h-99l-139 330h-103l-65 -330h-89l137 700h222c111 0 178 -60 178 -157c0 -116 -70 -192 -185 -207zM380 616h-136l-39 -202h139c85 0 136 38 136 113
c0 59 -33 89 -100 89z" />
    <glyph glyph-name="Euro" unicode="&#x20ac;" horiz-adv-x="603" 
d="M129 387h-90l55 80h57c56 161 157 241 302 241c88 0 151 -42 175 -114l-75 -37c-20 47 -58 71 -115 71c-93 0 -160 -54 -202 -161h236l-55 -80h-204l-15 -74h244l-55 -80h-196c0 -107 48 -161 143 -161c56 0 93 21 136 73l63 -39c-54 -76 -125 -114 -214 -114
c-131 0 -213 88 -213 241h-96l54 80h50z" />
    <glyph glyph-name="trademark" unicode="&#x2122;" horiz-adv-x="818" 
d="M186 641h-105l11 59h282l-11 -59h-105l-66 -341h-72zM370 300l77 400h75l53 -258l154 258h78l-77 -400h-72l48 250l-128 -213h-42l-45 216l-49 -253h-72z" />
    <glyph glyph-name="lozenge" unicode="&#x25ca;" horiz-adv-x="512" 
d="M297 0h-82l-180 350l180 350h82l180 -350zM119 350l137 -274l137 274l-137 274z" />
    <glyph glyph-name="CR" horiz-adv-x="232" 
 />
    <glyph glyph-name="zero.tn" horiz-adv-x="560" 
d="M355 708c121 0 191 -88 191 -251c0 -149 -35 -269 -105 -358c-56 -71 -128 -107 -216 -107c-120 0 -191 88 -191 251c0 149 35 269 105 358c56 71 128 107 216 107zM343 628c-77 0 -140 -58 -172 -138s-48 -163 -48 -236c0 -127 38 -182 114 -182c165 -1 222 240 220 374
c0 127 -38 182 -114 182z" />
    <glyph glyph-name="one.tn" horiz-adv-x="560" 
d="M189 592l199 108h32l-137 -700h-83l112 574l-141 -74z" />
    <glyph glyph-name="two.tn" horiz-adv-x="560" 
d="M435 0h-415l7 39l322 342c19 20 33 36 43 47c20 24 43 66 43 103c0 65 -30 97 -90 97s-109 -48 -130 -120l-85 16c29 109 106 184 222 184c104 0 172 -66 172 -155c0 -79 -27 -128 -91 -196l-260 -277h277z" />
    <glyph glyph-name="three.tn" horiz-adv-x="560" 
d="M52 184v8l84 11v-6c0 -73 47 -125 124 -125c97 0 145 58 145 173c0 80 -43 123 -115 123c-23 0 -45 -4 -65 -13l-26 47l189 218h-243l15 80h381l-5 -27l-222 -241c7 2 15 3 26 3c97 0 154 -68 154 -188c0 -76 -22 -138 -65 -185s-103 -70 -179 -70c-59 0 -106 19 -143 57
s-55 83 -55 135z" />
    <glyph glyph-name="four.tn" horiz-adv-x="560" 
d="M370 0h-89l29 149h-293l7 35l386 516h97l-92 -471h83l-16 -80h-83zM388 554l-241 -325h179z" />
    <glyph glyph-name="five.tn" horiz-adv-x="560" 
d="M38 173v11l82 15v-8c0 -71 39 -119 108 -119c48 0 87 17 117 51c31 35 46 80 46 135c0 84 -36 126 -107 126c-51 0 -112 -29 -156 -78l-53 12l105 382h343l-15 -80h-267l-60 -203c35 31 77 47 124 47c108 0 175 -64 175 -193c0 -84 -24 -152 -71 -203s-111 -76 -192 -76
c-51 0 -93 17 -128 50c-34 34 -51 78 -51 131z" />
    <glyph glyph-name="six.tn" horiz-adv-x="560" 
d="M310 448c105 0 175 -65 175 -188c0 -77 -24 -141 -73 -192s-111 -76 -188 -76c-113 0 -180 74 -180 186c0 63 22 124 66 182l266 348h102l-204 -267c11 5 23 7 36 7zM288 369c-46 0 -83 -18 -112 -53s-43 -77 -43 -125c0 -79 34 -119 103 -119c46 0 84 17 114 51
c31 35 46 76 46 125c0 80 -41 121 -108 121z" />
    <glyph glyph-name="seven.tn" horiz-adv-x="560" 
d="M563 663l-398 -663h-91l374 620h-286l16 80h393z" />
    <glyph glyph-name="eight.tn" horiz-adv-x="560" 
d="M361 708c103 0 163 -64 163 -161c0 -80 -47 -141 -118 -172c44 -23 78 -73 78 -144c0 -72 -21 -129 -63 -171c-45 -45 -110 -68 -194 -68c-53 0 -97 17 -132 50s-53 76 -53 129c0 92 50 166 142 206c-37 27 -55 68 -55 121c0 64 24 116 72 157c43 35 96 53 160 53z
M288 330c-43 0 -80 -14 -111 -42c-31 -27 -46 -62 -46 -103c0 -69 42 -113 110 -113c89 0 154 59 154 148c0 68 -38 110 -107 110zM346 632c-37 0 -68 -12 -94 -37c-25 -25 -38 -55 -38 -92c0 -57 34 -93 89 -93c36 0 68 12 95 35s41 53 41 90c0 61 -32 97 -93 97z" />
    <glyph glyph-name="nine.tn" horiz-adv-x="560" 
d="M263 252c-105 0 -175 65 -175 188c0 77 24 141 73 192s111 76 188 76c113 0 180 -74 180 -186c0 -63 -22 -124 -66 -182l-266 -348h-102l204 267c-11 -5 -23 -7 -36 -7zM285 331c46 0 83 18 112 53s43 77 43 125c0 79 -34 119 -103 119c-46 0 -84 -17 -115 -52
c-30 -34 -45 -75 -45 -124c0 -80 41 -121 108 -121z" />
    <glyph glyph-name="uni2206" unicode="&#x394;" horiz-adv-x="668" 
d="M613 0h-558v20l240 680h78l240 -680v-20zM508 76l-174 503l-174 -503h348z" />
    <glyph glyph-name="uni2206" unicode="&#x2206;" horiz-adv-x="668" 
d="M613 0h-558v20l240 680h78l240 -680v-20zM508 76l-174 503l-174 -503h348z" />
    <glyph glyph-name="uni2126" unicode="&#x3a9;" horiz-adv-x="682" 
d="M295 0h-220v76h129l-30 56c-12 24 -28 68 -48 132s-30 123 -30 176c0 79 22 144 65 193c44 50 104 75 180 75s136 -25 179 -75c44 -49 66 -114 66 -193c0 -53 -9 -110 -27 -171s-36 -108 -54 -142l-27 -51h129v-76h-220v23l12 24c5 10 13 31 26 62c13 32 25 64 34 95
c10 31 19 69 27 112c8 44 12 85 12 124c0 119 -58 192 -157 192s-157 -73 -157 -192c0 -61 9 -127 28 -196s37 -123 56 -162l27 -59v-23z" />
    <glyph glyph-name="uni2126" unicode="&#x2126;" horiz-adv-x="682" 
d="M295 0h-220v76h129l-30 56c-12 24 -28 68 -48 132s-30 123 -30 176c0 79 22 144 65 193c44 50 104 75 180 75s136 -25 179 -75c44 -49 66 -114 66 -193c0 -53 -9 -110 -27 -171s-36 -108 -54 -142l-27 -51h129v-76h-220v23l12 24c5 10 13 31 26 62c13 32 25 64 34 95
c10 31 19 69 27 112c8 44 12 85 12 124c0 119 -58 192 -157 192s-157 -73 -157 -192c0 -61 9 -127 28 -196s37 -123 56 -162l27 -59v-23z" />
    <glyph glyph-name="pi" unicode="&#x3c0;" horiz-adv-x="605" 
d="M143 428h-88v76h494v-76h-88v-428h-84v428h-150v-428h-84v428z" />
    <glyph glyph-name="partialdiff" unicode="&#x2202;" horiz-adv-x="601" 
d="M48 211c0 85 26 156 79 214s121 87 204 87c53 0 94 -17 121 -50c-11 107 -67 170 -146 170c-54 0 -93 -28 -118 -84l-82 21c33 85 107 139 203 139c156 0 230 -130 230 -351c0 -177 -82 -365 -285 -365c-61 0 -111 20 -149 61s-57 93 -57 158zM323 436
c-56 0 -102 -23 -137 -70c-35 -46 -52 -98 -52 -157c0 -84 48 -141 125 -141c57 0 102 22 136 66c34 45 51 99 51 162c0 87 -43 140 -123 140z" />
    <glyph glyph-name="product" unicode="&#x220f;" horiz-adv-x="552" 
d="M176 0h-84v700h368v-700h-84v624h-200v-624z" />
    <glyph glyph-name="summation" unicode="&#x2211;" horiz-adv-x="550" 
d="M485 624h-300l169 -264v-20l-169 -264h300v-76h-427v20l212 330l-212 330v20h427v-76z" />
    <glyph glyph-name="minus" unicode="&#x2212;" horiz-adv-x="570" 
d="M507 280h-440v74h440v-74z" />
    <glyph glyph-name="radical" unicode="&#x221a;" horiz-adv-x="572" 
d="M297 132l170 576h80l-217 -708h-66l-102 313h-104v76h153z" />
    <glyph glyph-name="infinity" unicode="&#x221e;" horiz-adv-x="880" 
d="M638 168c-69 0 -146 39 -198 111c-52 -72 -129 -111 -198 -111c-115 0 -184 76 -184 191s69 191 184 191c69 0 146 -39 198 -111c52 72 129 111 198 111c115 0 184 -76 184 -191s-69 -191 -184 -191zM257 244c47 0 105 42 141 115c-36 73 -94 115 -141 115
c-69 0 -113 -43 -113 -115s44 -115 113 -115zM623 244c69 0 113 43 113 115s-44 115 -113 115c-47 0 -105 -42 -141 -115c36 -73 94 -115 141 -115z" />
    <glyph glyph-name="integral" unicode="&#x222b;" horiz-adv-x="478" 
d="M96 -41l112 578c22 114 87 171 196 171c27 0 50 -5 69 -16l-31 -74c-16 9 -34 14 -54 14c-55 0 -83 -30 -96 -95l-112 -578c-22 -114 -87 -171 -196 -171c-27 0 -50 5 -69 16l31 74c16 -9 34 -14 54 -14c55 0 83 30 96 95z" />
    <glyph glyph-name="approxequal" unicode="&#x2248;" horiz-adv-x="604" 
d="M117 168l-49 50c29 55 79 89 132 89c29 0 63 -8 102 -25s69 -25 92 -25c37 0 68 15 93 45l49 -51c-29 -55 -77 -88 -132 -88c-29 0 -63 8 -102 25c-38 17 -69 25 -92 25c-37 0 -68 -15 -93 -45zM117 368l-49 50c29 55 79 89 132 89c29 0 63 -8 102 -25s69 -25 92 -25
c37 0 68 15 93 45l49 -51c-29 -55 -77 -88 -132 -88c-29 0 -63 8 -102 25c-38 17 -69 25 -92 25c-37 0 -68 -15 -93 -45z" />
    <glyph glyph-name="notequal" unicode="&#x2260;" horiz-adv-x="559" 
d="M263 356h-183v74h225l59 102l64 -37l-37 -65h88v-74h-132l-51 -92h183v-74h-225l-59 -102l-64 37l37 65h-88v74h132z" />
    <glyph glyph-name="lessequal" unicode="&#x2264;" horiz-adv-x="557" 
d="M495 0h-440v74h440v-74zM450 173l-349 185v88l349 185v-86l-267 -143l267 -143v-86z" />
    <glyph glyph-name="greaterequal" unicode="&#x2265;" horiz-adv-x="557" 
d="M62 74h440v-74h-440v74zM107 631l349 -185v-88l-349 -185v86l267 143l-267 143v86z" />
    <glyph glyph-name="apple" horiz-adv-x="786" 
d="M689 617v-595c0 -12 -10 -22 -22 -22c-2 0 -4 0 -7 1l-267 77l-267 -77c-3 -1 -5 -1 -7 -1c-12 0 -22 10 -22 22v595c0 11 5 19 16 22l270 78c8 3 12 3 20 0l270 -78c11 -3 16 -11 16 -22zM371 366v303l-230 -67c4 -63 28 -116 71 -161c44 -45 97 -70 159 -75zM645 602
l-230 67v-303c62 5 115 30 158 75c44 45 68 98 72 161zM140 463v-412l231 67v204c-97 8 -183 61 -231 141zM415 118l231 -67v412c-49 -80 -134 -133 -231 -141v-204z" />
    <glyph glyph-name="No" horiz-adv-x="1254" 
d="M1177 0h-438v76h438v-76zM782 264c-44 51 -66 113 -66 184s22 132 66 183c45 51 103 77 176 77s131 -26 175 -77c45 -51 67 -112 67 -183s-22 -133 -67 -184c-44 -51 -102 -76 -175 -76s-131 25 -176 76zM843 577c-27 -36 -41 -79 -41 -129s14 -93 41 -130
c28 -36 66 -54 115 -54s87 18 114 54c28 37 42 80 42 130s-14 93 -42 129c-27 37 -65 55 -114 55s-87 -18 -115 -55zM516 153v547h88v-700h-103l-316 545v-545h-88v700h103z" />
    </font>
</defs>
</svg>
